2 сезон

iTunes

WEBRip

1

2 сезон

iTunes

1 сезон

1 сезон

RePack

30

Новинка

ВАЖНО

ИГРА 18+

pack

RePack

MK11
pack

Легкие деньги

RePack

jed

RePack

fifa19

RePack

RDR2

RePack

NEED FOR SPEED™ PAYBACK

4 сезон

9 сезон

Бесстыжие 9 сезон

Все сериалы

все сериалы на PB.wtf

RePack

FAR CRY 5

Anonymous, доброй ночи, мы не успеваем собрать деньги на оплату серверов за февраль, помогите нам пожалуйста в это трудное время. В качестве благодарности мы отключим Вам всю рекламу на сайте (укажите свой ник в строку Ваше имя)!

×
  
Magnet ссылка

Поводырь / Поводир / Povodir (Олесь Санин ) [2013, военный, драма, приключения, SATRip] piratbit.org

Поводырь через торрент piratbit.org

Размер: 1.7 GB | Добавлен: 5 лет 9 мес. назад | Торрент скачан:113 раз
Скачать  

13-05-2015 17:16 Поводырь Скачать торрент  


Поводырь / Поводир / Povodir
«Закрой глаза. Смотри сердцем»

ИНФОРМАЦИЯ:
Год выпуска:2013
Страна: Украина
Жанр: военный, драма, приключения
Продолжительность: 01:53:19
Перевод: Оригинал - Украинский, Русский, Английский (диалоги на трёх языках)
Субтитры украинские.
Режиссер: Олесь Санин

В Ролях:


Антон Святослав Грин (Питер Шемрок), Станислав Боклан (Иван Кочерга), Александр Кобзарь (Владимир), Джамала (Ольга Левицкая), Ирина Санина (Орыся), Джефф Баррелл (Майкл Шемрок), Андрей Билоус (генерал), Федор Стригун (мастер Богдан), Олег Примогенов (Сытник), Максим Стоялов (прохожий)

Описание:
Украина, тридцатые годы. Американский инженер Майкл Шемрок вместе с сыном приезжает в Харьков помогать строить социализм. Здесь он влюбляется в актрису Ольгу Левицкую, на которую давно положил глаз красный комиссар. При трагических обстоятельствах американец погибает, а его сына спасает от преследователей слепой кобзарь. Не имея других шансов выжить на чужбине, парень становится поводырем. Их путешествие, полное опасных приключений, происходит на фоне драматических страниц украинской истории и разрушения человеческих судеб.

  • Мировая премьера:10 октября 2014

    ТЕХ.ДАННЫЕ:
    Качество: SATRip
    Формат: AVI
    Видео кодек: XviD
    Аудио кодек: MP3
    Видео: XviD, 704x288 (2.40:1), 1942 kbps, 25 fps, 0,383 bpp
    Аудио: MP3 / 2.0 / 48 kHz / 192 kbps /



    Код:

    General
    Complete name                            : D:\Торенты\Кино\Povodir 2014 SATRip\Povodir 2014 SATRip.avi
    Format                                   : AVI
    Format/Info                              : Audio Video Interleave
    File size                                : 1.70 GiB
    Duration                                 : 1h 53mn
    Overall bit rate                         : 2 145 Kbps
    Writing application                      : VirtualDubMod 1.5.10.3 | www.virtualdub-fr.org || (build 2550/release)
    Writing library                          : VirtualDub build 29808/release

    Video
    ID                                       : 0
    Format                                   : MPEG-4 Visual
    Format profile                           : Advanced Simple@L5
    Format settings, BVOP                    : 2
    Format settings, QPel                    : No
    Format settings, GMC                     : No warppoints
    Format settings, Matrix                  : Default (MPEG)
    Codec ID                                 : XVID
    Codec ID/Hint                            : XviD
    Duration                                 : 1h 53mn
    Bit rate                                 : 1 943 Kbps
    Width                                    : 704 pixels
    Height                                   : 288 pixels
    Display aspect ratio                     : 2.40:1
    Frame rate                               : 25.000 fps
    Color space                              : YUV
    Chroma subsampling                       : 4:2:0
    Bit depth                                : 8 bits
    Scan type                                : Progressive
    Compression mode                         : Lossy
    Bits/(Pixel*Frame)                       : 0.383
    Stream size                              : 1.54 GiB (91%)
    Writing library                          : XviD 1.2.1 (UTC 2008-12-04)

    Audio
    ID                                       : 1
    Format                                   : MPEG Audio
    Format version                           : Version 1
    Format profile                           : Layer 3
    Codec ID                                 : 55
    Codec ID/Hint                            : MP3
    Duration                                 : 1h 53mn
    Bit rate mode                            : Constant
    Bit rate                                 : 192 Kbps
    Channel(s)                               : 2 channels
    Sampling rate                            : 48.0 KHz
    Compression mode                         : Lossy
    Stream size                              : 156 MiB (9%)
    Alignment                                : Aligned on interleaves
    Interleave, duration                     : 40 ms (1.00 video frame)
    Interleave, preload duration             : 504 ms
    Writing library                          : LAME3.99r
    Encoding settings                        : -m s -V 4 -q 1 -lowpass 18.6 -b 192

    Скриншоты:


    © Оформление by Ворон
    piratbit.org



  • Скачать Поводырь через торрент http://s017.radikal.ru/i435/1505/0f/f70a8438b338.png Скачать фильм Поводырь через торрент бесплантно в хорошем качестве Описание: Украина, тридцатые годы. Американский инженер Майкл Шемрок вместе с сыном приезжает в Харьков помогать строить социализм. Здесь ... 10 10 6
    Info! Золотая раздача, скачанное не засчитывается.
    Торрент: Зарегистрирован [2015-05-13 17:16] · скачан: 113 раз
    Статус: √ проверено
    Размер: 1.7 GB
    Как cкачать? Как скачать Поводырь через торрент | UTorrent



    Последний раз редактировалось: Ворон (2015-05-13 20:29), всего редактировалось 2 раз(а)

    28-11-2019 20:33  

    Отключить всю рекламу на сайте

    13-05-2015 17:21 Поводырь Скачать торрент  

    Цитата:

    Роль поводыря выполнил 10-летний американец Антон Святослав Грин. Олесь Санин выбрал его из 200 претендентов на роль.

    Для съемок восстановили первый трактор Харьковского тракторного завода, выпущенного в 1931 году. Он 50 лет простоял на постаменте перед предприятием. Затем его сдали на металлолом. Для съемок трактор починили, теперь он ездит. Также восстановили паровоз и путь для него. Шили специальную одежду, в частности 200 пар сапог для кобзарей.

    Для съемок в эпизодах Олесь Санин пригласил несколько десятков незрячих и кобзарей. Также в фильме сыграл бандурист Тарас Компаниченко. Харьковского поэта Михайля Семенко сыграл Сергей Жадан. Он появляется в кадре на несколько секунд, читает стихи.

    Для Станислава Боклана и нескольких кобзарей заказали специальные линзы из США. В них актеры ничего не видели.

    Жену Ивана Кочерги сыграла жена режиссера Ирина Санина. Героиня живет в деревянном доме на острове, куда трудно добраться. Для съемок дом построили на Днепре и заказали для нее специальную крышу. Мастера постелили на дом старую крышу с дома-музея Шевченко.

    На создание фильма ушло 10 лет.

    Фильм сильный, но не для всех.piratbit.org



    23-09-2015 16:52 Поводырь Скачать торрент  

    Фильм действительно сильный, но крайне тяжелый... После просмотра настроение мрачное.piratbit.org



    23-03-2016 20:14 Поводырь Скачать торрент  

    Спасибо за раздачу.piratbit.org



      Дорогой пользователь! Огромная просьба, поблагодарите релизера, оцените раздачу и оставьте свои комментарий, если Вы скачали Поводырь через торрент бесплатно! Внесите свою лепту в развитие PiratBit!
      Комментировать посты могут только пользователи прошедшие не сложную регистрацию
      Показать сообщения:    

      Поводырь через торрент
      Скачать бесплатно Поводырь
      Поводырь скачать торрент
      Поводырь смотреть онлайн
      Cкачать фильм Поводырь бесплатно
      Поводырь скачать торрент в хорошем качестве
      Поводырь смотреть онлайн бесплатно в хорошем качестве


      Вы не можете начинать темы
      Вы не можете отвечать на сообщения
      Вы не можете редактировать свои сообщения
      Вы не можете удалять свои сообщения
      Вы не можете голосовать в опросах
      Вы не можете прикреплять файлы к сообщениям
      Вы можете скачивать файлы