Присоединяйтесь к нам в Telegram!, здесь всегда актуальный адрес сайта, оперативная поддержка и многое другое!!

>

5.9

iTunes

7.4

iTunes

9.4

1 сезон

1

7.4

2 сезон

7.2

iTunes

7.3

1 сезон

13

6.1

iTunes

8.3

GOG

30

ULTIMATE

pack

9.9

Лицензия

ВАЖНО

ИГРА 18+

pack

7.3

RePack

MK11

7.7

RePack

jed

7.8

RePack

fifa19

8.5

RePack

RDR2

RePack

NEED FOR SPEED™ PAYBACK

5 сезон

9 сезон

Бесстыжие 9 сезон

Все сериалы

все сериалы на PB.wtf

RePack

FAR CRY 5

Anonymous, добрый день, мы катастрофически не успеваем собрать деньги на оплату серверов, помогите нам пожалуйста 5,10,15р., для нас важна любая помощь . В качестве благодарности мы отключим Вам всю рекламу на сайте (укажите свой ник в строку Ваше имя)!

×
  
Magnet ссылка

Психушка / Реверс / The Asylum / Backmask / Exeter (Маркус Ниспел ) [2015, ужасы, триллер, WEB-DLRip, Любительский (одноголосый) [den904] piratbit.org

Психушка через торрент piratbit.org

Размер: 1.37 GB | Добавлен: 6 лет 6 мес. назад | Торрент скачан:431 раз
Смотреть онлайн Психушка | Скачать    Ребята, помогите собрать деньги на оплату серверов!!!

15-05-2015 12:10 Психушка Скачать торрент  


Психушка / Реверс / The Asylum / Backmask / Exeter


ИНФОРМАЦИЯ:
Год выпуска:2015
Страна: США
Жанр: ужасы, триллер
Продолжительность: 01:31:38
Перевод: Любительский (одноголосый) [den904]
Режиссер: Маркус Ниспел

В Ролях:


Стивен Лэнг (Father Conway), Бретт Дир (Brad), Бриттани Каррен (Reign), Гейдж Голайтли (Amber), Кевин Чэпмен (Greer), Келли Блац (Patrick), Мередит Прунти (Party Dancer), Дженнифер Сайпс (Reporter), Эшли Трамонте (Rave party teen), Джаррет ЛеМастер, Майкл Ормсби (Rory), Ник Нак (Brian Knowles)

Описание:
Группа подростков во время пьяной вечеринки находят старую аудиозапись и ради прикола решают проиграть ее в обратном порядке, тем самым они случайно выпускает на волю злого духа, который начинает вселяться в них по одному...

  • Мировая премьера:27 февраля 2015

    ТЕХ.ДАННЫЕ:
    Качество: WEB-DLRip
    Формат: AVI
    Видео кодек: XviD
    Аудио кодек: AC3
    Видео: XviD, 720x400 (16:9), 1743 kbps, 23,976 fps, 0,240 bpp
    Аудио: AC3 / 5.1 / 48 kHz / 384 kbps / 16 bit



    Код:

    General
    Complete name                            : D:\Торенты\Backmask.2015.L1.WEB-DLRip.1400MB.avi
    Format                                   : AVI
    Format/Info                              : Audio Video Interleave
    File size                                : 1.37 GiB
    Duration                                 : 1h 31mn
    Overall bit rate                         : 2 136 Kbps
    Writing application                      : VirtualDubMod 1.5.10.3 | www.virtualdub-fr.org || (build 2550/release)
    Writing library                          : VirtualDubMod build 2550/release

    Video
    ID                                       : 0
    Format                                   : MPEG-4 Visual
    Format profile                           : Advanced Simple@L5
    Format settings, BVOP                    : 1
    Format settings, QPel                    : No
    Format settings, GMC                     : No warppoints
    Format settings, Matrix                  : Custom
    Codec ID                                 : XVID
    Codec ID/Hint                            : XviD
    Duration                                 : 1h 31mn
    Bit rate                                 : 1743 Kbps
    Width                                    : 720 pixels
    Height                                   : 400 pixels
    Display aspect ratio                     : 16:9
    Frame rate                               : 23.976 fps
    Color space                              : YUV
    Chroma subsampling                       : 4:2:0
    Bit depth                                : 8 bits
    Scan type                                : Progressive
    Compression mode                         : Lossy
    Bits/(Pixel*Frame)                       : 0.240
    Stream size                              : 1.06 GiB (78%)
    Writing library                          : XviD 73

    Audio
    ID                                       : 1
    Format                                   : AC-3
    Format/Info                              : Audio Coding 3
    Mode extension                           : CM (complete main)
    Codec ID                                 : 2000
    Duration                                 : 1h 31mn
    Bit rate mode                            : Constant
    Bit rate                                 : 384 Kbps
    Channel(s)                               : 6 channels
    Channel positions                        : Front: L C R, Side: L R, LFE
    Sampling rate                            : 48.0 KHz
    Bit depth                                : 16 bits
    Compression mode                         : Lossy
    Delay relative to video                  : 31ms
    Stream size                              : 252 MiB (18%)
    Alignment                                : Split accross interleaves

    Скриншоты:


    © Оформление by Ворон
    piratbit.org



  • Скачать Психушка через торрент https://pic1.kartinco.top/images/61/ordi9.jpg Скачать, смотреть онлайн Психушка бесплантно в хорошем качестве Описание: Группа подростков во время пьяной вечеринки находят старую аудиозапись и ради прикола решают проиграть ее в обратном порядке, тем ... 9.9 10 10
    Торрент: Зарегистрирован [2015-05-15 12:10] · скачан: 431 раз
    Статус: T временная
    Размер: 1.37 GB
    Как cкачать? Как скачать Психушка через торрент | UTorrent

    % Раздел Тема Автор DL S | L
    T Фильмы 2015 (Звук TS, Cam, VO, DVO) [ 1.42 GB ] Психушка / Реверс / The Asylum / Backmask / Exeter [2015 BDRip Любительский [datynet] Twi7ter Скачать
    1 | 0

    28-11-2019 20:33  

    Отключить всю рекламу на сайте

    15-05-2015 14:48 Психушка Скачать торрент  

    можно глянуть по трейлеру вроде на 1 раз не плохо не дрожащая камера а как фильм редко такие ужасы щас делаютpiratbit.org



    15-05-2015 14:55 Психушка Скачать торрент  

    Не помню когда я смотрел в последний раз приличный ужастик.Сплошь бездарщина и трэшняк,а когда действуют дурно орущие с нелогичными поступками подростки-вообще чушь несуесветная.Боюсь,что и этот не исключение.Всегда жаль потраченного времени.piratbit.org



    08-06-2015 16:04 Психушка Скачать торрент  

    The Asylum :film: . Этим все сказано! piratbit.org



      Дорогой пользователь! Огромная просьба, поблагодарите релизера, оцените раздачу и оставьте свои комментарий, если Вы скачали Психушка через торрент бесплатно!
      Комментировать посты могут только пользователи прошедшие не сложную регистрацию
      Показать сообщения:    

      Психушка через торрент
      Скачать бесплатно Психушка
      Психушка скачать торрент
      Психушка смотреть онлайн
      Cкачать фильм Психушка бесплатно
      Психушка скачать торрент в хорошем качестве
      Психушка смотреть онлайн бесплатно в хорошем качестве


      Вы не можете начинать темы
      Вы не можете отвечать на сообщения
      Вы не можете редактировать свои сообщения
      Вы не можете удалять свои сообщения
      Вы не можете голосовать в опросах
      Вы не можете прикреплять файлы к сообщениям
      Вы можете скачивать файлы