Присоединяйтесь к нам в Telegram!, здесь всегда актуальный адрес сайта, оперативная поддержка и многое другое!!

>

5.9

iTunes

7.4

iTunes

9.4

1 сезон

1

7.4

2 сезон

7.2

iTunes

7.3

1 сезон

13

6.1

iTunes

8.3

GOG

30

ULTIMATE

pack

9.9

Лицензия

ВАЖНО

ИГРА 18+

pack

7.3

RePack

MK11

7.7

RePack

jed

7.8

RePack

fifa19

8.5

RePack

RDR2

RePack

NEED FOR SPEED™ PAYBACK

5 сезон

9 сезон

Бесстыжие 9 сезон

Все сериалы

все сериалы на PB.wtf

RePack

FAR CRY 5

Anonymous, доброе утро, мы катастрофически не успеваем собрать деньги на оплату серверов, помогите нам пожалуйста 5,10,15р., для нас важна любая помощь . В качестве благодарности мы отключим Вам всю рекламу на сайте (укажите свой ник в строку Ваше имя)!

×
  
Magnet ссылка

Связанная / Bound (Джаред Кон ) [2015, триллер, драма, WEB-DLRip, Любительский (одноголосый) [datynet] piratbit.org

Связанная через торрент piratbit.org

Размер: 1.37 GB | Добавлен: 6 лет 6 мес. назад | Торрент скачан:234 раза
Смотреть онлайн Связанная | Скачать    Ребята, помогите собрать деньги на оплату серверов!!!

17-05-2015 07:25 Связанная Скачать торрент  


Связанная / Bound
«Surrender Your Passion»

ИНФОРМАЦИЯ:
Год выпуска:2015
Страна: США / Global Asylum
Жанр: триллер, драма
Продолжительность: 01:30:51
Перевод: Любительский (одноголосый) [datynet]
Режиссер: Джаред Кон

В Ролях:


Харизма Карпентер (Michelle Mulan), Брайс Дрэйпер (Ryan Black), Morgan Obenreder (Dara), Майкл Монкс (Preston), Дэниэл Болдуин (Walter), Энди Т. Трэн (Lee), Марк МакКлейн Уилсон (George), Хейли МакЛафлин (Alana), Ноэль Артур (Jesse Aaron), Стеффини Фроммани (Kori), Стив Су (Security Officer), Седрик Скотт (Concierge)

Описание:
Дочь богатого брокера недвижимости влюбляется в молодого человека, который вводит ее в мир БДСМ. Используя своё недавно пробудившееся сексуальное мастерство, она, наконец, берет контроль над собственной жизнью в свои руки.

  • Мировая премьера:9 января 2015

    ТЕХ.ДАННЫЕ:
    Качество: WEB-DLRip
    Формат: AVI
    Видео кодек: XviD
    Аудио кодек: MP3
    Видео: XviD, 720x400 (16:9), 1823 kbps, 23,976 fps, 0,252 bpp
    Аудио №1: MP3 / 2.0 / 44 kHz / 192 kbps / Russian
    Аудио №2: MP3 / 2.0 / 48 kHz / 128 kbps / English



    Код:

    General
    Complete name                            : D:\Торенты\Svjazannaja.2015.L1.WEB-DLRip.avi
    Format                                   : AVI
    Format/Info                              : Audio Video Interleave
    File size                                : 1.37 GiB
    Duration                                 : 1h 30mn
    Overall bit rate                         : 2 156 Kbps
    Writing application                      : VirtualDubMod 1.5.10.3 | www.virtualdub-fr.org || (build 2550/release)
    Writing library                          : VirtualDubMod build 2550/release

    Video
    ID                                       : 0
    Format                                   : MPEG-4 Visual
    Format profile                           : Advanced Simple@L5
    Format settings, BVOP                    : 2
    Format settings, QPel                    : No
    Format settings, GMC                     : No warppoints
    Format settings, Matrix                  : Default (H.263)
    Codec ID                                 : XVID
    Codec ID/Hint                            : XviD
    Duration                                 : 1h 30mn
    Bit rate                                 : 1823 Kbps
    Width                                    : 720 pixels
    Height                                   : 400 pixels
    Display aspect ratio                     : 16:9
    Frame rate                               : 23.976 fps
    Color space                              : YUV
    Chroma subsampling                       : 4:2:0
    Bit depth                                : 8 bits
    Scan type                                : Progressive
    Compression mode                         : Lossy
    Bits/(Pixel*Frame)                       : 0.252
    Stream size                              : 1.10 GiB (81%)
    Writing library                          : XviD 73

    Audio #1
    ID                                       : 1
    Format                                   : MPEG Audio
    Format version                           : Version 1
    Format profile                           : Layer 3
    Codec ID                                 : 55
    Codec ID/Hint                            : MP3
    Duration                                 : 1h 30mn
    Bit rate mode                            : Constant
    Bit rate                                 : 192 Kbps
    Channel(s)                               : 2 channels
    Sampling rate                            : 44.1 KHz
    Compression mode                         : Lossy
    Stream size                              : 125 MiB (9%)
    Alignment                                : Split accross interleaves

    Audio #2
    ID                                       : 2
    Format                                   : MPEG Audio
    Format version                           : Version 1
    Format profile                           : Layer 3
    Codec ID                                 : 55
    Codec ID/Hint                            : MP3
    Duration                                 : 1h 30mn
    Bit rate mode                            : Constant
    Bit rate                                 : 128 Kbps
    Channel(s)                               : 2 channels
    Sampling rate                            : 48.0 KHz
    Compression mode                         : Lossy
    Stream size                              : 83.2 MiB (6%)
    Alignment                                : Aligned on interleaves
    Writing library                          : LAME3.99.5

    Скриншоты:

    © Оформление by Ворон
    piratbit.org



  • Скачать Связанная через торрент https://pic1.kartinco.top/images/61/ordi9.jpg Скачать, смотреть онлайн Связанная бесплантно в хорошем качестве Описание: Дочь богатого брокера недвижимости влюбляется в молодого человека, который вводит ее в мир БДСМ. Используя своё недавно ... 10 10 4
    Торрент: Зарегистрирован [2015-05-17 07:25] · скачан: 234 раз
    Статус: T временная
    Размер: 1.37 GB
    Как cкачать? Как скачать Связанная через торрент | UTorrent

    % Раздел Тема Автор DL S | L
    T Фильмы (мультфильмы) cо спонсором показа (Новинки AVI/MKV) [ 4.18 GB ] Связанные Союзом / Union Bound [2019 история WEB-DL 720p] MVO ["Синема УС"] bober100 Скачать
    1 | 0
    T Фильмы (мультфильмы) cо спонсором показа (Новинки AVI/MKV) [ 1.37 GB ] Связанные Союзом / Union Bound [2019 история WEB-DLRip] MVO ["Синема УС"] bober100 Скачать
    1 | 0
    Порно фильмы без сюжета [ 1.93 GB ] Связанные Для Секса 3 / Bound For Sex 3 [2019 All Sex Oral Gonzo Legal Teen Facial Bondage Domination Fetish WEB-DLRip] sheker187 Скачать
    1 | 0
    Гонзо [ 1.3 GB ] Связанная Горячая Жена 3 / Hotwife Bound 3 [2017 All Sex Oral Gonzo Bondage Fetish Hotwife Wives WEB-DLRip 480p] Split Scenes sheker187 Скачать
    1 | 0
    Гонзо [ 2.11 GB ] Связанная Горячая Жена 2 / Hotwife Bound 2 [2017 All Sex Oral Gonzo Facial Bondage Domination Fetish WEB-DLRip 480p] Split Scenes sheker187 Скачать
    1 | 0
    Гонзо [ 1.66 GB ] Связанные Мамочки / MILF Bound [2016 All Sex Oral Gonzo Big Boobs Mature MILF Bondage Fetish WEB-DLRip 480p] Split Scenes sheker187 Скачать
    1 | 0
    Нетрадиционное порно [ 1.07 GB ] Связанная Школьница 4 / Schoolgirl Bound 4 [2016 18+ Teens Bondage Domination Fetish WEB-DL Оригинальный] DJASFUL Скачать
    1 | 0

    28-11-2019 20:33  

    Отключить всю рекламу на сайте

    17-05-2015 07:28 Связанная Скачать торрент  

    Ворон писал(а):

    Страна: США / Global Asylum

    Кто не понял, студия делает копирайты на известные фильмы. В данном случае это http://pb.wtf/tracker/?ss=%D0%9F%D1%8F%D1%82%D1%8C%...D0%BD%20#resultspiratbit.org



    17-05-2015 08:50 Связанная Скачать торрент  

    Ворон писал(а):

    Кто не понял, студия делает копирайты на известные фильмы.

    Ворон, красава , кто предупреждён, тот вооружон yes ))) Асилум форева, эта студия как В.И.Ленин - живее всех живых))) no nopiratbit.org



    17-05-2015 19:35 Связанная Скачать торрент  

    Ворон писал(а):

    Ворон писал(а):

    Страна: США / Global Asylum

    Кто не понял, студия делает копирайты на известные фильмы. В данном случае это http://pb.wtf/tracker/?ss=Пятьдесят оттенков серого+2015+Сэм Тейлор-Джонсон #results

    Ну за такие сиськи, Асайлум можно и посмотреть)))
    Может им совсем переквалифицироваться на них?)))piratbit.org



      Дорогой пользователь! Огромная просьба, поблагодарите релизера, оцените раздачу и оставьте свои комментарий, если Вы скачали Связанная через торрент бесплатно!
      Комментировать посты могут только пользователи прошедшие не сложную регистрацию
      Показать сообщения:    

      Связанная через торрент
      Скачать бесплатно Связанная
      Связанная скачать торрент
      Связанная смотреть онлайн
      Cкачать фильм Связанная бесплатно
      Связанная скачать торрент в хорошем качестве
      Связанная смотреть онлайн бесплатно в хорошем качестве


      Вы не можете начинать темы
      Вы не можете отвечать на сообщения
      Вы не можете редактировать свои сообщения
      Вы не можете удалять свои сообщения
      Вы не можете голосовать в опросах
      Вы не можете прикреплять файлы к сообщениям
      Вы можете скачивать файлы