Ссылка на приватное зеркало нашего сайта всего за 1$. Внимание количество ограничено!!!

2 сезон

iTunes

iTunes

1

iTunes

iTunes

iTunes

WEBRip

iTunes

30
pack

Вам бонус

ВАЖНО

!!Акция!!

Alien_RageХит недели

RePack

Horizon Zero Dawn

ИГРА 18+

pack

RePack

jed

!!Акция!!

Alien_Rage

RePack

fifa19

RePack

Assassins Creed: Odyssey

RePack

NEED FOR SPEED™ PAYBACK

4 сезон

9 сезон

Бесстыжие 9 сезон

Все сериалы

все сериалы на PB.wtf

RePack

FAR CRY 5
  

Токио! / Tokyo! (Пон Чжун Хо, Леос Каракс, Мишель Гондри) [2008 г., фэнтези, драма, комедия, BDRip, Профессиональный многоголосый + Оригинальная, японская дорожка] piratbit.org

Токио! через торрент piratbit.org

Размер: 1.46 GB | Добавлен: 5 лет 4 мес. назад | Торрент скачан:34 раза
Скачать  

19-05-2015 09:06 Токио! Скачать торрент  

Токио! / Tokyo!
Год выпуска: 2008
Страна: Франция, Япония, Южная Корея, Германия
Жанр: фэнтези, драма, комедия
Продолжительность: 01:47:00
Перевод: Профессиональный многоголосый + Оригинальная, японская дорожка (Отдельно)

Режиссер: Пон Чжун Хо, Леос Каракс, Мишель Гондри
Продюссер: Энн Перно-Савада, Маса Савада, Мичико Ёситакэ
Сценарий: Пон Чжун Хо, Леос Каракс, Мишель Гондри

Бюджет: $351 059
Премьера в мире: 14 мая 2008

IMDB 7.10 (6590)


В ролях: Дени Лаван, Аяко Фудзитани, Рё Касэ, Аюми Ито, Нао Омори, Сатоси Цумабуки, Кен Мицуйси, Юно Иригучи, Рие Минемура, Бен Химура

Описание: Три совершенно разные истории, общее у которых лишь одно: место действия — мегаполис Токио. Первая «Дизайн интерьера» повествует о молодых людях, приехавших покорять столицу Японии. Акира мечтает стать выдающимся кинематографистом, а его девушка Хироко ищет свое жизненное предназначение и находит его неожиданно фантастическим образом. Вторая «Дерьмо» о «существе из канализации», безумном получеловеке-полузвере, пожирающем исключительно цветы и деньги и терроризирующем весь город. И последняя «Сотрясающийся Токио» о парне Теруюку. Он хикикомори. Так в Японии называют молодых людей, стремящихся к изоляции от внешнего мира, ведущих затворнической образ жизни. Все меняется, когда в дверь Теруюку стучится любовь в образе симпатичной разносчицы пиццы...

Качество: BDRip
Формат: AVI
Видео кодек: MPEG4
Аудио кодек: AC3
Видео: MPEG-4 Visual at 1541 Кбит/сек 720 x 384 (1.844) at 24.000 fps
Аудио#1: AC-3 at 320 Кбит/сек 6 каналов, 48,0 КГц
Релиз от: HQ-ViDEO
скриншот   скриншот   скриншот   скриншот  





Общее
Полное имя : D:\закачки\Токио BDRIP [piratbit.cc].avi
Формат : AVI
Формат/Информация : Audio Video Interleave
Размер файла : 1,46 Гбайт
Продолжительность : 1 ч. 52 м.
Общий поток : 1870 Кбит/сек
Программа кодирования : VirtualDubMod 1.5.10.2 (build 2542/release)
Библиотека кодирования : VirtualDubMod build 2542/release

Видео
Идентификатор : 0
Формат : MPEG-4 Visual
Профиль формата : Advanced Simple@L5
Параметр BVOP формата : 1
Параметр QPel формата : Нет
Параметр GMC формата : Без точки перехода
Параметр матрицы формата : Выборочная
Идентификатор кодека : XVID
Идентификатор кодека/Подсказка : XviD
Продолжительность : 1 ч. 52 м.
Битрейт : 1541 Кбит/сек
Ширина : 720 пикселей
Высота : 384 пикселя
Соотношение сторон : 1,85:1
Соотношение сторон в оригинале : 1,85:1
Частота кадров : 24,000 кадра/сек
Цветовое пространство : YUV
Субдискретизация насыщенности : 4:2:0
Битовая глубина : 8 бит
Тип развёртки : Прогрессивная
Метод сжатия : С потерями
Бит/(Пиксели*Кадры) : 0.232
Размер потока : 1,21 Гбайт (82%)
Библиотека кодирования : XviD 1.2.1 (UTC 2008-12-04)

Аудио
Идентификатор : 1
Формат : AC-3
Формат/Информация : Audio Coding 3
Расширение режима : CM (complete main)
Параметр Endianness формата : Big
Идентификатор кодека : 2000
Продолжительность : 1 ч. 51 м.
Вид битрейта : Постоянный
Битрейт : 320 Кбит/сек
Каналы : 6 каналов
Расположение каналов : Front: L C R, Side: L R, LFE
Частота : 48,0 КГц
Битовая глубина : 16 бит
Метод сжатия : С потерями
Размер потока : 256 Мбайт (17%)
Выравнивание : Разделение по промежуткам
Продолжительность промежутка : 42 мс. (1,00 видеокадр)
Время предзагрузки промежутка : 500 мс.


Токио! скачать торрент


piratbit.org



Скачать Токио! через торрент http://pic1.kartinco.top/images/10/3b1uv.jpg Скачать фильм Токио! через торрент бесплантно в хорошем качестве Описание: Три совершенно разные истории, общее у которых лишь одно: место действия — мегаполис Токио. Первая «Дизайн интерьера» повествует ... 10 10 1
Info! Золотая раздача, скачанное не засчитывается.
Торрент: Зарегистрирован [2015-05-19 09:06] · скачан: 34 раз
Статус: √ проверено
Размер: 1.46 GB
Как cкачать? Как скачать Токио! через торрент | qTorrent

% Раздел Тема Автор DL S | L
Фильмы (HD 720p, 1080p) (48-60 fps) [ 3.2 GB ] Разборки в Маленьком Токио / Showdown In Little Tokyo [1991 BDRip 720p / 60 FPS ] от R.G. HD-Films slaventi-69 Скачать
2 | 0
Фильмы (Blu-ray, BD-Remux, HDDVD) [ 25.29 GB ] Разборки в маленьком Токио / Showdown In Little Tokyo [1991 Blu-Ray Remux 1080p] 2xDUB MVO DVO 5xAVO 2xMVO Леонид Ильич Скачать
1 | 0
Мультфильмы / Cartoons [ 381 MB ] Охотницы на демонов - Demon hunters [2015Al sex gangbang anal fentazi monsters ass boobs.WEB-DLRip 720 Оригинальный] DJASFUL Скачать
1 | 0
Фильмы с авторской озвучкой [ 1.36 GB ] Разборка в маленьком Токио / Showdown in Little Tokyo [1991 BDRip] [AVO] killermax2013 Скачать
1 | 0
Фильмы 2006-2008 [ 2.18 GB ] Токио! / Tokyo! [2008 BDRip] MVO koenig Скачать
1 | 0
Аниме [HD 720p, 1080p] [ 4.37 GB ] Однажды в Токио / Tokyo Godfathers [2003 аниме мультфильм BDRip 720p от еnvy / NNNB] DUB MVO еnvy Скачать
6 | 0
Паки сайтрипов [ 508.81 GB ] Горячие в Токио / Tokyo-Hot Collection / 1080p [2012 Asian Teen Group sex Blowjob Handjob Creampie Masturbation Rape Uniform HDRip] Magnat Скачать
1 | 0

28-11-2019 20:33  

Отключить всю рекламу на сайте

19-05-2015 10:18 Токио! Скачать торрент  

Судя по описания фильма это что-то?????????????????????????????piratbit.org



19-05-2015 10:54 Токио! Скачать торрент  

Witee писал(а):

Судя по описания фильма это что-то?????????????????????????????

исключительно на любителяpiratbit.org



19-05-2015 11:54 Токио! Скачать торрент  

Трейлер откуда срисовал? sarcastic аля Италиоpiratbit.org



    Дорогой пользователь! Огромная просьба, поблагодарите релизера, оцените раздачу и оставьте свои комментарий, если Вы скачали Токио! через торрент бесплатно! Внесите свою лепту в развитие PiratBit!
    Комментировать посты могут только пользователи прошедшие не сложную регистрацию
    Показать сообщения:    

    Токио! через торрент
    Скачать бесплатно Токио!
    Токио! скачать торрент
    Токио! смотреть онлайн
    Cкачать фильм Токио! бесплатно
    Токио! скачать торрент в хорошем качестве
    Токио! смотреть онлайн бесплатно в хорошем качестве


    Вы не можете начинать темы
    Вы не можете отвечать на сообщения
    Вы не можете редактировать свои сообщения
    Вы не можете удалять свои сообщения
    Вы не можете голосовать в опросах
    Вы не можете прикреплять файлы к сообщениям
    Вы можете скачивать файлы