Ссылка на приватное зеркало нашего сайта всего за 1$. Внимание количество ограничено!!!

2 сезон

iTunes

1 сезон

1

iTunes

iTunes

iTunes

1 сезон

RePack

30

ИГРА 18+

pack

ВАЖНО

!!Акция!!

Alien_RageХит недели

RePack

MK11
pack

Забери бонус

RePack

jed

!!Акция!!

Alien_Rage

RePack

fifa19

RePack

Assassins Creed: Odyssey

RePack

NEED FOR SPEED™ PAYBACK

4 сезон

9 сезон

Бесстыжие 9 сезон

Все сериалы

все сериалы на PB.wtf

RePack

FAR CRY 5
  

Могамбо / Mogambo (Джон Форд) [1953 г., драма, мелодрама, приключения, TVRip, Любительский многоголосый] piratbit.org

Могамбо через торрент piratbit.org

Размер: 1.37 GB | Добавлен: 5 лет 5 мес. назад | Торрент скачан:5 раз
Скачать  

19-05-2015 14:14 Могамбо Скачать торрент  

Могамбо / Mogambo
Год выпуска: 1953
Страна: США
Жанр: драма, мелодрама, приключения
Продолжительность: 116 мин. / 01:56
Перевод: Любительский многоголосый

Режиссер: Джон Форд
Продюссер: Сэм Цимбалист
Сценарий: Джон Ли Мэхин, Уилсон Коллисон

Премьера в мире: 23 сентября 1953

IMDB 6.70 (5232)


В ролях: Кларк Гейбл, Ава Гарднер, Грэйс Келли, Дональд Синден, Филип Стейнтон, Эрик Польман, Лоуренс Нэйсмит, Денис О’Ди, Самбуру, Вагения

Описание: Кения, центральная Африка. Профессиональный охотник и авантюрист Виктор Марсуэлл помогает группам туристов и антропологов преодолевать бескрайние просторы саванны и непроходимые заросли черного континента. Во время одной из экспедиций он встречает Келли, танцовщицу из варьете, которая намного младше его.Между ними завязывается бурный роман, который будет прерван прибытием в поселок семейной пары Нордли. Антрополог Доналд и его чопорная, и на вид неприступная, жена Линда, прибыли для изучения жизни горилл и шимпанзе. Любвеобильный Виктор решает приударить за неприступной женой ученого и не безуспешно. Этот авантюрный поступок причинит боль Келли, но приведет к неожиданной развязке в сложившемся любовном треугольнике.

Качество: TVRip
Формат: AVI
Видео кодек: DivX
Аудио кодек: AC3
Видео: 1559 Кбит/сек :1,385 25,000 кадров/сек DivX 5.0.5 (UTC 2003-04-24), 576px × 416px
Аудио#1: Audio Coding 3 192 Кбит/сек 48,0 КГц 16 бит
скриншот   скриншот   скриншот   скриншот   скриншот   скриншот  

Общее
Полное имя : C:\Users\sony\Downloads\Mogambo_[torrents.ru].avi
Формат : AVI
Формат/Информация : Audio Video Interleave
Размер файла : 1,37 Гбайт
Продолжительность : 1 ч. 51 м.
Общий поток : 1761 Кбит/сек
Программа кодирования : VirtualDubMod 1.5.10.1 (build 2439/release)
Библиотека кодирования : VirtualDubMod build 2439/release

Видео
Идентификатор : 0
Формат : MPEG-4 Visual
Параметр BVOP формата : 1
Параметр QPel формата : Нет
Параметр GMC формата : Без точки перехода
Параметр матрицы формата : Default (H.263)
Режим смешивания : Сжатый битовый поток
Идентификатор кодека : DX50
Идентификатор кодека/Подсказка : DivX 5
Продолжительность : 1 ч. 51 м.
Битрейт : 1559 Кбит/сек
Ширина : 576 пикселей
Высота : 416 пикселей
Соотношение сторон : 1,385
Частота кадров : 25,000 кадров/сек
Цветовое пространство : YUV
Субдискретизация насыщенности : 4:2:0
Битовая глубина : 8 бит
Тип развёртки : Прогрессивная
Метод сжатия : С потерями
Бит/(Пиксели*Кадры) : 0.260
Размер потока : 1,21 Гбайт (89%)
Библиотека кодирования : DivX 5.0.5 (UTC 2003-04-24)

Аудио
Идентификатор : 1
Формат : AC-3
Формат/Информация : Audio Coding 3
Расширение режима : CM (complete main)
Параметр Endianness формата : Big
Идентификатор кодека : 2000
Продолжительность : 1 ч. 51 м.
Вид битрейта : Постоянный
Битрейт : 192 Кбит/сек
Каналы : 2 канала
Расположение каналов : Front: L R
Частота : 48,0 КГц
Битовая глубина : 16 бит
Метод сжатия : С потерями
Размер потока : 153 Мбайт (11%)
Выравнивание : Разделение по промежуткам
Продолжительность промежутка : 40 мс. (1,00 видеокадр)
Время предзагрузки промежутка : 500 мс.


Могамбо скачать торрент


piratbit.org



Скачать Могамбо через торрент http://pic.kartinco.top/images/11/bfxfk.jpg Скачать фильм Могамбо через торрент бесплантно в хорошем качестве Описание: Кения, центральная Африка. Профессиональный охотник и авантюрист Виктор Марсуэлл помогает группам туристов и антропологов ... 10 10 3
Info! Золотая раздача, скачанное не засчитывается.
Торрент: Зарегистрирован [2015-05-19 14:14] · скачан: 5 раз
Статус: √ проверено
Размер: 1.37 GB
Как cкачать? Как скачать Могамбо через торрент | qTorrent

28-11-2019 20:33  

Отключить всю рекламу на сайте

    Дорогой пользователь! Огромная просьба, поблагодарите релизера, оцените раздачу и оставьте свои комментарий, если Вы скачали Могамбо через торрент бесплатно! Внесите свою лепту в развитие PiratBit!
    Комментировать посты могут только пользователи прошедшие не сложную регистрацию
    Показать сообщения:    

    Могамбо через торрент
    Скачать бесплатно Могамбо
    Могамбо скачать торрент
    Могамбо смотреть онлайн
    Cкачать фильм Могамбо бесплатно
    Могамбо скачать торрент в хорошем качестве
    Могамбо смотреть онлайн бесплатно в хорошем качестве


    Вы не можете начинать темы
    Вы не можете отвечать на сообщения
    Вы не можете редактировать свои сообщения
    Вы не можете удалять свои сообщения
    Вы не можете голосовать в опросах
    Вы не можете прикреплять файлы к сообщениям
    Вы можете скачивать файлы