>

5.6

iTunes

6.1

MVO

5.7

MVO

1

7.4

1 сезон

6.8

iTunes

7.2

1 сезон

13

6.7

1 сезон

8.3

RePack

30

Deluxe

pack

9.9

Лицензия

ВАЖНО

ИГРА 18+

pack

7.3

RePack

MK11

7.7

RePack

jed

7.8

RePack

fifa19

8.5

RePack

RDR2

RePack

NEED FOR SPEED™ PAYBACK

4 сезон

9 сезон

Бесстыжие 9 сезон

Все сериалы

все сериалы на PB.wtf

RePack

FAR CRY 5

Anonymous, добрый день, мы катастрофически не успеваем собрать деньги на оплату серверов, помогите нам пожалуйста 5,10,15р., для нас важна любая помощь . В качестве благодарности мы отключим Вам всю рекламу на сайте (укажите свой ник в строку Ваше имя)!

×
  
Magnet ссылка

Укол зонтиком / Le coup du parapluie (Жерар Ури / Gérard Oury) [1980, Франция, комедия, криминал, HDRip,Дубляж, Профессиональный многоголосый [НТВ], Оригинальный piratbit.org

Укол зонтиком через торрент piratbit.org

Размер: 1.46 GB | Добавлен: 6 лет 4 мес. назад | Торрент скачан:49 раз
Смотреть онлайн Укол зонтиком | Скачать    Ребята, помогите собрать деньги на оплату серверов!!!

20-05-2015 12:02 Укол зонтиком Скачать торрент  

Укол зонтиком / Le coup du parapluie

Год выпуска: 1980
Страна: Франция
Жанр: комедия, криминал

Продолжительность: 01:34:15
Перевод: Дубляж
Профессиональный многоголосый [НТВ]
Оригинальный
Субтитры: Русские (отдельным файлом)
Режиссер: Жерар Ури / Gérard Oury
В ролях: Пьер Ришар (Grégoire Lecomte), Валери Мересс (Sylvette, alias Bunny), Кристин Мурийо (Josyane Leblanc), Гордон Митчелл (Moskovitz, le tueur), Жерар Жюньо (Frédo), Морис Риш (Le producteur de Paris), Доминик Лаванан (Mireille), Аксель Аббади (Juliette, la fleuriste), Ясин Хан (Radj Kahn), Дидье Совегран (Stanislas Lefort, dit Constantin Patakis, alias Pierre Juvet, dit «La Folle»), Майк Маршалл (Le docteur), Роже Карель (Salvatore Bozzoni)
Описание:
Актёр Грегуар Леконт получает приглашение сняться в кино в роли киллера, он ошибается дверью и попадает к мафии которые дают ему задание убрать бандита по кличке «Кит» и снабжают его зонтиком с отравленной иглой. Грегуар приступает к работе не подозревая, что впутался в криминал. Тем временем настоящий убийца идет по его следу...
Рейтинг
kinopoisk.ru: 7.609 (10 961)
imdb.com: 6.50 (1202)
Качество: HDRip
Формат: AVI
Видео кодек: XviD
Аудио кодек:AC3
Видео: XviD, 672x400 (1.680), 1626 kbps, 24 fps, 0,252 bpp
Аудио №1: AC3 / 2.0 / 48 kHz / 192 kbps / 16 bit НТВ
Аудио №2: AC3 / 2.0 / 48 kHz / 192 kbps / 16 bit Дубляж
Аудио №3: AC3 / 2.0 / 48 kHz / 192 kbps / 16 bit Оригинальный

Общее
Полное имя : D:\torrent\Ukol.Zontikom.1980.HDRip\Ukol.Zontikom.1980.HDRip.avi
Формат : AVI
Формат/Информация : Audio Video Interleave
Размер файла : 1,46 Гбайт
Продолжительность : 1 ч. 34 м.
Общий поток : 2221 Кбит/сек
Программа кодирования : VirtualDubMod 1.5.10.3 | www.virtualdub-fr.org || (build 2550/release)
Библиотека кодирования : VirtualDubMod build 2550/release

Видео
Идентификатор : 0
Формат : MPEG-4 Visual
Профиль формата : Advanced Simple@L5
Параметр BVOP формата : 1
Параметр QPel формата : Нет
Параметр GMC формата : Без точки перехода
Параметр матрицы формата : Выборочная
Идентификатор кодека : XVID
Идентификатор кодека/Подсказка : XviD
Продолжительность : 1 ч. 34 м.
Битрейт : 1626 Кбит/сек
Ширина : 672 пикселя
Высота : 400 пикселей
Соотношение сторон : 5:3
Частота кадров : 24,000 кадра/сек
Цветовое пространство : YUV
Субдискретизация насыщенности : 4:2:0
Битовая глубина : 8 бит
Тип развёртки : Прогрессивная
Метод сжатия : С потерями
Бит/(Пиксели*Кадры) : 0.252
Размер потока : 1,07 Гбайт (73%)
Библиотека кодирования : XviD 64

Аудио #1
Идентификатор : 1
Формат : AC-3
Формат/Информация : Audio Coding 3
Профиль формата : Dolby Digital
Расширение режима : CM (complete main)
Параметр Endianness формата : Big
Идентификатор кодека : 2000
Продолжительность : 1 ч. 34 м.
Вид битрейта : Постоянный
Битрейт : 192 Кбит/сек
Каналы : 2 канала
Расположение каналов : Front: L R
Частота : 48,0 КГц
Битовая глубина : 16 бит
Метод сжатия : С потерями
Размер потока : 129 Мбайт (9%)
Выравнивание : Разделение по промежуткам
Продолжительность промежутка : 42 мс. (1,00 видеокадр)
Время предзагрузки промежутка : 500 мс.

Аудио #2
Идентификатор : 2
Формат : AC-3
Формат/Информация : Audio Coding 3
Профиль формата : Dolby Digital
Расширение режима : CM (complete main)
Параметр Endianness формата : Big
Идентификатор кодека : 2000
Продолжительность : 1 ч. 34 м.
Вид битрейта : Постоянный
Битрейт : 192 Кбит/сек
Каналы : 2 канала
Расположение каналов : Front: L R
Частота : 48,0 КГц
Битовая глубина : 16 бит
Метод сжатия : С потерями
Размер потока : 129 Мбайт (9%)
Выравнивание : Разделение по промежуткам
Продолжительность промежутка : 42 мс. (1,00 видеокадр)
Время предзагрузки промежутка : 500 мс.

Аудио #3
Идентификатор : 3
Формат : AC-3
Формат/Информация : Audio Coding 3
Расширение режима : CM (complete main)
Параметр Endianness формата : Big
Идентификатор кодека : 2000
Продолжительность : 1 ч. 34 м.
Вид битрейта : Постоянный
Битрейт : 192 Кбит/сек
Каналы : 2 канала
Расположение каналов : Front: L R
Частота : 48,0 КГц
Битовая глубина : 16 бит
Метод сжатия : С потерями
Размер потока : 129 Мбайт (9%)
Выравнивание : Разделение по промежуткам
Продолжительность промежутка : 42 мс. (1,00 видеокадр)
Время предзагрузки промежутка : 500 мс.


piratbit.org



Скачать Укол зонтиком через торрент http://i2.imageban.ru/out/2015/05/17/c0d7cdb445f3e74cc28534a272d69e1b.jpg Скачать, смотреть онлайн Укол зонтиком бесплантно в хорошем качестве Описание: Актёр Грегуар Леконт получает приглашение сняться в кино в роли киллера, он ошибается дверью и попадает к мафии которые дают ему ... 10 10 3
Info! Золотая раздача, скачанное не засчитывается.
Торрент: Зарегистрирован [2015-05-20 12:02] · скачан: 49 раз
Статус: √ проверено
Размер: 1.46 GB
Как cкачать? Как скачать Укол зонтиком через торрент | UTorrent

28-11-2019 20:33  

Отключить всю рекламу на сайте

29-06-2015 01:28 Укол зонтиком Скачать торрент  

фильм супер класика.. Пьер Ришар конь ещё тот. yes :film: yespiratbit.org



    Дорогой пользователь! Огромная просьба, поблагодарите релизера, оцените раздачу и оставьте свои комментарий, если Вы скачали Укол зонтиком через торрент бесплатно!
    Комментировать посты могут только пользователи прошедшие не сложную регистрацию
    Показать сообщения:    

    Укол зонтиком через торрент
    Скачать бесплатно Укол зонтиком
    Укол зонтиком скачать торрент
    Укол зонтиком смотреть онлайн
    Cкачать фильм Укол зонтиком бесплатно
    Укол зонтиком скачать торрент в хорошем качестве
    Укол зонтиком смотреть онлайн бесплатно в хорошем качестве


    Вы не можете начинать темы
    Вы не можете отвечать на сообщения
    Вы не можете редактировать свои сообщения
    Вы не можете удалять свои сообщения
    Вы не можете голосовать в опросах
    Вы не можете прикреплять файлы к сообщениям
    Вы можете скачивать файлы