Присоединяйтесь к нам в Telegram!, здесь всегда актуальный адрес сайта, оперативная поддержка и многое другое!!

>

5.9

iTunes

7.4

iTunes

9.4

1 сезон

1

7.4

2 сезон

7.2

iTunes

7.3

1 сезон

13

6.1

iTunes

8.3

Пиратка

30

ULTIMATE

pack

9.9

Лицензия

ВАЖНО

ИГРА 18+

pack

7.3

RePack

MK11

7.7

RePack

jed

7.8

RePack

fifa19

8.5

RePack

RDR2

RePack

NEED FOR SPEED™ PAYBACK

5 сезон

9 сезон

Бесстыжие 9 сезон

Все сериалы

все сериалы на PB.wtf

RePack

FAR CRY 5

Anonymous, доброй ночи, мы катастрофически не успеваем собрать деньги на оплату серверов, помогите нам пожалуйста 5,10,15р., для нас важна любая помощь . В качестве благодарности мы отключим Вам всю рекламу на сайте (укажите свой ник в строку Ваше имя)!

×
  
Magnet ссылка

Ночной огонёк / Nightlight (Скотт Бек , Брайан Вудс ) [2015, ужасы, триллер, WEB-DLRip, Любительский (одноголосый) [datynet] piratbit.org

Ночной огонёк через торрент piratbit.org

Размер: 1.38 GB | Добавлен: 6 лет 6 мес. назад | Торрент скачан:122 раза
Смотреть онлайн Ночной огонёк | Скачать    Ребята, помогите собрать деньги на оплату серверов!!!

22-05-2015 19:09 Ночной огонёк Скачать торрент  


Ночной огонёк / Nightlight


ИНФОРМАЦИЯ:
Год выпуска:2015
Страна: США
Жанр: ужасы, триллер
Продолжительность: 01:23:59
Перевод: Любительский (одноголосый) [datynet]
Режиссер: Скотт Бек , Брайан Вудс

В Ролях:


Шелби Янг (Robin), Хлоя Бриджес (Nia), Картер Дженкинс (Chris), Митч Хьюер (Ben), Тейлор Мерфи (Amelia), Кайл Фэйн (Ethan)

Описание:
Пятеро друзей решают поиграть в лесу, о котором ходят мрачные легенды. Вскоре мрак начинает овладевать разумом ребят, и лишь ночной огонек послужит для них спасением.

  • Мировая премьера:27 марта 2015

    ТЕХ.ДАННЫЕ:
    Качество: WEB-DLRip
    Формат: AVI
    Видео кодек: XviD
    Аудио кодек: AC3
    Видео: XviD, 720x304 (2.35:1), 1871 kbps, 23,976 fps, 0,357 bpp
    Аудио №1: AC3 / 2.0 / 44 kHz / 192 kbps / Russian
    Аудио №2: AC3 / 2.0 / 48 kHz / 192 kbps / English



    Код:

    General
    Complete name                            : D:\Торенты\Nightlight.2015.L1.WEB-DLRip.avi
    Format                                   : AVI
    Format/Info                              : Audio Video Interleave
    File size                                : 1.38 GiB
    Duration                                 : 1h 23mn
    Overall bit rate                         : 2 360 Kbps
    Writing application                      : VirtualDubMod 1.5.10.3 | www.virtualdub-fr.org || (build 2550/release)
    Writing library                          : VirtualDubMod build 2550/release

    Video
    ID                                       : 0
    Format                                   : MPEG-4 Visual
    Format profile                           : Advanced Simple@L5
    Format settings, BVOP                    : 1
    Format settings, QPel                    : No
    Format settings, GMC                     : No warppoints
    Format settings, Matrix                  : Custom
    Codec ID                                 : XVID
    Codec ID/Hint                            : XviD
    Duration                                 : 1h 23mn
    Bit rate                                 : 1 871 Kbps
    Width                                    : 720 pixels
    Height                                   : 304 pixels
    Display aspect ratio                     : 2.35:1
    Frame rate                               : 23.976 fps
    Color space                              : YUV
    Chroma subsampling                       : 4:2:0
    Bit depth                                : 8 bits
    Scan type                                : Progressive
    Compression mode                         : Lossy
    Bits/(Pixel*Frame)                       : 0.357
    Stream size                              : 1.10 GiB (79%)
    Writing library                          : XviD 73

    Audio #1
    ID                                       : 1
    Format                                   : AC-3
    Format/Info                              : Audio Coding 3
    Mode extension                           : CM (complete main)
    Codec ID                                 : 2000
    Duration                                 : 1h 23mn
    Bit rate mode                            : Constant
    Bit rate                                 : 192 Kbps
    Channel(s)                               : 2 channels
    Channel positions                        : Front: L R
    Sampling rate                            : 44.1 KHz
    Bit depth                                : 16 bits
    Compression mode                         : Lossy
    Delay relative to video                  : 6ms
    Stream size                              : 115 MiB (8%)
    Alignment                                : Split accross interleaves

    Audio #2
    ID                                       : 2
    Format                                   : AC-3
    Format/Info                              : Audio Coding 3
    Mode extension                           : CM (complete main)
    Codec ID                                 : 2000
    Duration                                 : 1h 23mn
    Bit rate mode                            : Constant
    Bit rate                                 : 192 Kbps
    Channel(s)                               : 2 channels
    Channel positions                        : Front: L R
    Sampling rate                            : 48.0 KHz
    Bit depth                                : 16 bits
    Compression mode                         : Lossy
    Stream size                              : 115 MiB (8%)
    Alignment                                : Split accross interleaves

    Скриншоты:


    © Оформление by Ворон
    piratbit.org



  • Скачать Ночной огонёк через торрент https://pic1.kartinco.top/images/61/ordi9.jpg Скачать, смотреть онлайн Ночной огонёк бесплантно в хорошем качестве Описание: Пятеро друзей решают поиграть в лесу, о котором ходят мрачные легенды. Вскоре мрак начинает овладевать разумом ребят, и лишь ... 10 10 3
    Торрент: Зарегистрирован [2015-05-22 19:09] · скачан: 122 раз
    Статус: T временная
    Размер: 1.38 GB
    Как cкачать? Как скачать Ночной огонёк через торрент | UTorrent

    % Раздел Тема Автор DL S | L
    T Фильмы (WEB-DL 720p, 1080p) [ 2.74 GB ] Ночной огонёк / Nightlight [2015 WEB-DL 720p Любительский [datynet] Ворон Скачать
    1 | 0

    28-11-2019 20:33  

    Отключить всю рекламу на сайте

      Дорогой пользователь! Огромная просьба, поблагодарите релизера, оцените раздачу и оставьте свои комментарий, если Вы скачали Ночной огонёк через торрент бесплатно!
      Комментировать посты могут только пользователи прошедшие не сложную регистрацию
      Показать сообщения:    

      Ночной огонёк через торрент
      Скачать бесплатно Ночной огонёк
      Ночной огонёк скачать торрент
      Ночной огонёк смотреть онлайн
      Cкачать фильм Ночной огонёк бесплатно
      Ночной огонёк скачать торрент в хорошем качестве
      Ночной огонёк смотреть онлайн бесплатно в хорошем качестве


      Вы не можете начинать темы
      Вы не можете отвечать на сообщения
      Вы не можете редактировать свои сообщения
      Вы не можете удалять свои сообщения
      Вы не можете голосовать в опросах
      Вы не можете прикреплять файлы к сообщениям
      Вы можете скачивать файлы