Присоединяйтесь к нам в Telegram!, здесь всегда актуальный адрес сайта, оперативная поддержка и многое другое!!

>

5.9

iTunes

7.4

iTunes

9.4

1 сезон

1

7.4

2 сезон

7.2

iTunes

7.3

iTunes

13

6.1

iTunes

8.3

Пиратка

30

ULTIMATE

pack

9.9

Лицензия

ВАЖНО

ИГРА 18+

pack

7.3

RePack

MK11

7.7

RePack

jed

7.8

RePack

fifa19

8.5

RePack

RDR2

RePack

NEED FOR SPEED™ PAYBACK

5 сезон

9 сезон

Бесстыжие 9 сезон

Все сериалы

все сериалы на PB.wtf

RePack

FAR CRY 5

Anonymous, добрый вечер, мы катастрофически не успеваем собрать деньги на оплату серверов, помогите нам пожалуйста 5,10,15р., для нас важна любая помощь . В качестве благодарности мы отключим Вам всю рекламу на сайте (укажите свой ник в строку Ваше имя)!

×
  
Magnet ссылка

Бесконечность / Infini (Шейн Эббесс / Shane Abbess) [2015, Австралия, фантастика, триллер, драма, WEB-DLRip, Любительский (двухголосый) [RAIM&NASTR] + ENG piratbit.org

Бесконечность через торрент piratbit.org

Размер: 1.87 GB | Добавлен: 6 лет 6 мес. назад | Торрент скачан:613 раз
Смотреть онлайн Бесконечность | Скачать    Ребята, помогите собрать деньги на оплату серверов!!!

24-05-2015 02:20 Бесконечность Скачать торрент  

Бесконечность / Infini


  • Год выпуска: 2015
  • Страна: Австралия
  • Жанр: фантастика, триллер, драма
  • Продолжительность: 01:50:42
  • Перевод: Любительский (двухголосый) [RAIM&NASTR]

  • Режиссер: Шейн Эббесс / Shane Abbess
  • В ролях:

    Дэниэл МакФерсон (Whit Carmichael), Грэйс Хуанг (Claire Grenich), Люк Хемсворт (Charlie Kent), Брен Фостер (Morgan Jacklar), Люк Форд (Chester Huntington), Дуэйн Стивенсон (Rex Mannings), Луиса Миньоне (Philipa Boxen), Тесс Хобрич (Lisa Carmichael), Гарри Павлидис (Harris Menzies), Кевин Коуплэнд (Seet Johanson), Энди Родореда (Sefton Norick), Ричард Хаггетт (Montoli)

  • Описание:
    На отдаленном горнодобывающем комплексе произошла ужасающая биологическая катастрофа, которая привела к тому, что все находящиеся там люди были заражены каким-то неизвестным смертоносным вирусом, и в конечном итоге это привело к их смерти. Расследовать это страшное событие поручили секретному и элитному отряду бойцов, которые должны были отправиться на территорию этого комплекса, чтобы разобраться, почему произошла эта катастрофа и насколько быстро распространяется этот вирус. Прибывши на место, к удивлению бойцов, в комплексе остался один живой человек, этот Уит Кармайкл. Спецотряд сразу же заинтересовался тем, как же Уиту удалось не заразиться этим страшным вирусом, и чтобы найти ответ на этот вопрос им придется узнать страшную правду об этом человеке. Кто же такой Уит Кармайкл на самом деле? Чем закончиться эта спасательная операция?
  • Рейтинг:



  • Качество: WEB-DLRip
  • Формат: :AVI
  • Видео кодек: XviD
  • Аудио кодек: AC3
  • Видео: 720x304 (2.35:1), 1766 kbps, 23,976 fps, 0,337 bpp
  • Аудио №1: Русский 2.0 / 48 kHz / 256 kbps / 16 bit
  • Аудио №2: Английский 5.1 / 48 kHz / 384 kbps / 16 bit
  • Релиз от: GEKADOL

    Код:

    General
    Complete name                            : F:\Infini.2015.L2.WEB-DLRip.2100MB.avi
    Format                                   : AVI
    Format/Info                              : Audio Video Interleave
    File size                                : 1.87 GiB
    Duration                                 : 1h 50mn
    Overall bit rate                         : 2 420 Kbps
    Writing application                      : VirtualDubMod 1.5.10.3 | www.virtualdub-fr.org || (build 2550/release)
    Writing library                          : VirtualDubMod build 2550/release

    Video
    ID                                       : 0
    Format                                   : MPEG-4 Visual
    Format profile                           : Advanced Simple@L5
    Format settings, BVOP                    : 2
    Format settings, QPel                    : No
    Format settings, GMC                     : No warppoints
    Format settings, Matrix                  : Default (MPEG)
    Muxing mode                              : Packed bitstream
    Codec ID                                 : XVID
    Codec ID/Hint                            : XviD
    Duration                                 : 1h 50mn
    Bit rate                                 : 1 766 Kbps
    Width                                    : 720 pixels
    Height                                   : 304 pixels
    Display aspect ratio                     : 2.35:1
    Frame rate                               : 23.976 fps
    Color space                              : YUV
    Chroma subsampling                       : 4:2:0
    Bit depth                                : 8 bits
    Scan type                                : Progressive
    Compression mode                         : Lossy
    Bits/(Pixel*Frame)                       : 0.337
    Stream size                              : 1.37 GiB (73%)
    Writing library                          : XviD 73

    Audio #1
    ID                                       : 1
    Format                                   : AC-3
    Format/Info                              : Audio Coding 3
    Mode extension                           : CM (complete main)
    Codec ID                                 : 2000
    Duration                                 : 1h 50mn
    Bit rate mode                            : Constant
    Bit rate                                 : 256 Kbps
    Channel(s)                               : 2 channels
    Channel positions                        : Front: L R
    Sampling rate                            : 48.0 KHz
    Bit depth                                : 16 bits
    Compression mode                         : Lossy
    Stream size                              : 203 MiB (11%)
    Alignment                                : Split accross interleaves
    Interleave, duration                     : 42 ms (1.00 video frame)
    Interleave, preload duration             : 500 ms

    Audio #2
    ID                                       : 2
    Format                                   : AC-3
    Format/Info                              : Audio Coding 3
    Mode extension                           : CM (complete main)
    Codec ID                                 : 2000
    Duration                                 : 1h 50mn
    Bit rate mode                            : Constant
    Bit rate                                 : 384 Kbps
    Channel(s)                               : 6 channels
    Channel positions                        : Front: L C R, Side: L R, LFE
    Sampling rate                            : 48.0 KHz
    Bit depth                                : 16 bits
    Compression mode                         : Lossy
    Stream size                              : 304 MiB (16%)
    Alignment                                : Split accross interleaves
    Interleave, duration                     : 42 ms (1.00 video frame)
    Interleave, preload duration             : 500 ms




    Скриншоты:



    piratbit.org



  • Скачать Бесконечность через торрент http://i5.imageban.ru/out/2015/05/24/ed7aaea8e8d2034e0681941a14f06a3e.jpg Скачать, смотреть онлайн Бесконечность бесплантно в хорошем качестве Описание: На отдаленном горнодобывающем комплексе произошла ужасающая биологическая катастрофа, которая привела к тому, что все находящиеся ... 9.6 10 17
    Торрент: Зарегистрирован [2015-05-24 02:20] · скачан: 613 раз
    Статус: T временная
    Размер: 1.87 GB
    Как cкачать? Как скачать Бесконечность через торрент | UTorrent

    % Раздел Тема Автор DL S | L
    Фильмы (HD 720p, 1080p) (48-60 fps) [ 5.8 GB ] Мстители: Война бесконечности / Avengers: Infinity War [2018 WEB-DLRip 720p / 60 FPS ] от R.G. HD-Films slaventi-69 Скачать
    1 | 0
    Фильмы без перевода [ 2.11 GB ] Обитель зла: Бесконечная тьма / Resident Evil: Infinite Darkness / Сезон: 1 / Серии: 1-4 из 4 [2021 WEBRip 720p] [Sub] killermax2013 Скачать
    1 | 1
    Ultra HD (UHD: 2K, 4K, 8K) — видео сверхвысокой чёткости [ 59.35 GB ] Мстители: Война бесконечности / Avengers: Infinity War [2018 UHD BDRemux 2160p] DUB [] + AVO sheker187 Скачать
    3 | 0
    3D Фильмы [ 12.46 GB ] Мстители: Война бесконечности 3Д / Avengers: Infinity War 3D [2018 BDRip 1080p] [Half OverUnder / Вертикальная анаморфная стереопара] DUB [] bober100 Скачать
    2 | 0
    Фильмы [HD 720p, 1080p] (Хороший звук DUB, MVO) [ 7.57 GB ] Мстители: Война бесконечности / Avengers: Infinity War [2018 BDRip 1080p HEVC ()] Мичман37 Скачать
    7 | 0
    3D Фильмы [ 8.68 GB ] Мстители: Война бесконечности в 3D / Avengers: Infinity War in 3D [2018 BDRip 1080p ] Анаглиф slaventi-69 Скачать
    1 | 0
    Ultra HD (UHD: 2K, 4K, 8K) — видео сверхвысокой чёткости [ 54.04 GB ] Мстители: Война бесконечности / Avengers: Infinity War [2018 UHD BDRemux 2160p] - [] sheker187 Скачать
    3 | 0

    28-11-2019 20:33  

    Отключить всю рекламу на сайте

    26-05-2015 13:10 Бесконечность Скачать торрент  

    Бред!!!!!piratbit.org



    07-06-2015 02:01 Бесконечность Скачать торрент  

    фильм сложный, не детский триллерный боевичок, где вся жизнь - "20 пальцев, пестик и тычинки. только два вопроса по сюжету: "что такое жизнь?" и "какую сторону ты выберешь?"piratbit.org



    09-06-2015 19:04 Бесконечность Скачать торрент  

    фильм класс !! не для общей массы, советую тем, кто задолбался смотреть пиф-паф и "пироги"piratbit.org



    21-06-2015 21:13 Бесконечность Скачать торрент  

    Хороший фильм для любителей научной фантастики.Мне показалось,чем то похож на (Солярис) Тарковского.piratbit.org



      Дорогой пользователь! Огромная просьба, поблагодарите релизера, оцените раздачу и оставьте свои комментарий, если Вы скачали Бесконечность через торрент бесплатно!
      Комментировать посты могут только пользователи прошедшие не сложную регистрацию
      Показать сообщения:    

      Бесконечность через торрент
      Скачать бесплатно Бесконечность
      Бесконечность скачать торрент
      Бесконечность смотреть онлайн
      Cкачать фильм Бесконечность бесплатно
      Бесконечность скачать торрент в хорошем качестве
      Бесконечность смотреть онлайн бесплатно в хорошем качестве


      Вы не можете начинать темы
      Вы не можете отвечать на сообщения
      Вы не можете редактировать свои сообщения
      Вы не можете удалять свои сообщения
      Вы не можете голосовать в опросах
      Вы не можете прикреплять файлы к сообщениям
      Вы можете скачивать файлы