Доктор Стрэндж

Лицензия

Добыча

Дубляж

Уэнсдэй

1 сезон

Тор

Дубляж

В эфире

Дубляж

Там, где раки поют

MVO

Властелин колец

1 сезон

Deluxe

pack

Рекомендуем

30

Пиратка

ВАЖНО

ВАЖНО

Ghostwire

Пиратка

jed

RePack

nioh2

RePack

RDR2

RePack

NEED FOR SPEED™ PAYBACK

RePack

скачать торрент

Кинопоиск HD

Острые козырьки 6 сезон

6 сезон

FAR CRY 6

RePack

скачать торрент

Лицензия

скачать торрент

MVO

1

1 сезон

скачать торрент

1 сезон

скачать торрент

Лицензия

  

Экспедиция / Extinction (Адам Спинкс / Adam Spinks) [2014, Великобритания, приключения, BDRip 720p, Любительский (двухголосый) [ColdFilm]

Экспедиция через торрент piratbit.org

Размер: 3.04 GB | Добавлен: 7 лет 6 мес. назад | Торрент скачан:111 раз
Смотреть онлайн | Скачать   

01-06-2015 04:09 Экспедиция Скачать торрент  

Экспедиция / Extinction
«Природа нашла место, чтобы развиваться»


  • Год выпуска: 2014
  • Страна: Великобритания
  • Жанр: приключения
  • Продолжительность: 01:44:20
  • Перевод: Любительский (двухголосый) [ColdFilm]

  • Режиссер: Адам Спинкс / Adam Spinks
  • В ролях:

    Sarah Mac (Michelle), Бен Лойд-Холмс (Professor John Howson), Нейл Ньюбон (Rob), Дэниел Карен (James), Emma Lillie Lees (Lisa), Саймон Барбеидж (Tim), Долорес Рейналс (Maria), Росс О’Хеннесси (Jeff), Эрнесто Лезек (Carlos), Анджела Розмари Питерс (Lucy), Фелим Келли (Associated Press member), Zarra Khan (Survivor)

  • Описание:
    В центре этой истории -группа во главе с довольно-таки уважаемым профессором. Ребята отправляются в экспедицию на большую реку, которая носит такое известное название как Амазонка. Там они хотят найти редкие виды животных, а может быть даже и несколько новых видов, но это если повезет. По пути у наших героев начинают твориться странные вещи. В результате всего этого, провожатые из местных отказываются от сопровождения этой группы, но почему. С этого момента всем становится еще страшнее...
  • Рейтинг:



  • Качество: BDRip 720p
  • Формат: :MKV
  • Видео кодек: MPEG-4 Visual ASP
  • Аудио кодек: MP3
  • Видео: 1280x720 (16:9), 3898 kbps, 23,976 fps, 0,176 bpp
  • Аудио: 2.0 / 48 kHz / 192 kbps / 32 bit
  • Релиз от: GEKADOL

    Код:

    General
    Unique ID                                : 113666968567125754690375729494178158764 (0x5583763B7B40D2FD9936DFC24BE858AC)
    Complete name                            : D:\Фильмы\Extinction.2014.L2.BDRip.mkv
    Format                                   : Matroska
    Format version                           : Version 2
    File size                                : 3.04 GiB
    Duration                                 : 1h 44mn
    Overall bit rate                         : 4 174 Kbps
    Writing application                      : Lavf54.63.104
    Writing library                          : Lavf54.63.104

    Video
    ID                                       : 1
    Format                                   : MPEG-4 Visual
    Format profile                           : Simple@L1
    Format settings, BVOP                    : No
    Format settings, QPel                    : No
    Format settings, GMC                     : No warppoints
    Format settings, Matrix                  : Default (H.263)
    Codec ID                                 : V_MPEG4/ISO/ASP
    Codec ID/Info                            : Advanced Simple Profile
    Duration                                 : 1h 44mn
    Bit rate                                 : 3 899 Kbps
    Width                                    : 1 280 pixels
    Height                                   : 720 pixels
    Display aspect ratio                     : 16:9
    Frame rate                               : 23.976 fps
    Color space                              : YUV
    Chroma subsampling                       : 4:2:0
    Bit depth                                : 8 bits
    Scan type                                : Progressive
    Compression mode                         : Lossy
    Bits/(Pixel*Frame)                       : 0.176
    Stream size                              : 2.84 GiB (93%)
    Writing library                          : Lavc54.92.100
    Default                                  : Yes
    Forced                                   : No

    Audio
    ID                                       : 2
    Format                                   : MPEG Audio
    Format version                           : Version 1
    Format profile                           : Layer 3
    Mode                                     : Joint stereo
    Codec ID                                 : A_MPEG/L3
    Codec ID/Hint                            : MP3
    Duration                                 : 1h 44mn
    Bit rate mode                            : Constant
    Bit rate                                 : 192 Kbps
    Channel(s)                               : 2 channels
    Sampling rate                            : 48.0 KHz
    Compression mode                         : Lossy
    Stream size                              : 143 MiB (5%)
    Writing library                          : LAME3.99.5
    Default                                  : Yes
    Forced                                   : No




    Скриншоты:
    скриншот   скриншот   скриншот   скриншот   скриншот  
    скриншот  


    !Ворон писал(а):


    До появления более лучшего рипа.



  • Скачать Экспедиция через торрент http://i6-imageban-ru.translate.goog/out/2015/06/01/b4b2a76ee3832ecbb8a2a4c9d2bb5c18.jpg Скачать, смотреть онлайн Экспедиция бесплантно в хорошем качестве Описание: В центре этой истории -группа во главе с довольно-таки уважаемым профессором. Ребята отправляются в экспедицию на большую реку, ... 10 10 3
    Торрент: Зарегистрирован [2015-06-01 04:09] · скачан: 111 раз
    Статус: # сомнительно
    Размер: 3.04 GB
    Как cкачать? Как скачать Экспедиция через торрент | UTorrent

    % Раздел Тема Автор DL S | L
    Фильмы 2014 (Звук TS, Cam, VO, DVO) [ 1.36 GB ] Экспедиция / Extinction | ColdFilm | HDRip, Любительский (двухголосый GEKADOL Скачать
    1 | 0



    Последний раз редактировалось: GEKADOL (2015-06-01 05:52), всего редактировалось 1 раз

    28-11-2019 20:33  


    Отключить вcю реклaмy на сайте, в т.ч. и в плеере онлайн просмотра!

    01-06-2015 05:02 Экспедиция Скачать торрент  

    кино про тех самых"...а британские учёные установили..."? :rofle:



      Дорогой пользователь! Огромная просьба, поблагодарите релизера, оцените раздачу и оставьте свои комментарий, если Вы скачали Экспедиция через торрент бесплатно!!
      Комментировать посты могут только пользователи прошедшие не сложную регистрацию
      Показать сообщения:    


      Экспедиция через торрент
      Скачать бесплатно Экспедиция
      Экспедиция скачать торрент
      Экспедиция смотреть онлайн
      Cкачать фильм Экспедиция бесплатно
      Экспедиция скачать торрент в хорошем качестве
      Экспедиция смотреть онлайн бесплатно в хорошем качестве
      Вы не можете начинать темы
      Вы не можете отвечать на сообщения
      Вы не можете редактировать свои сообщения
      Вы не можете удалять свои сообщения
      Вы не можете голосовать в опросах
      Вы не можете прикреплять файлы к сообщениям
      Вы можете скачивать файлы
      Экспедиция / Extinction [2014, Великобритания, приключения, BDRip 720p, Любительский [ColdFilm] смотреть онлайн, скачать торрент picoco.icu