Присоединяйтесь к нам в Telegram!, здесь всегда актуальный адрес сайта, оперативная поддержка и многое другое!!

>

5.9

iTunes

7.4

iTunes

9.4

1 сезон

1

7.4

2 сезон

7.2

iTunes

7.3

1 сезон

13

6.1

iTunes

8.3

GOG

30

ULTIMATE

pack

9.9

Лицензия

ВАЖНО

ИГРА 18+

pack

7.3

RePack

MK11

7.7

RePack

jed

7.8

RePack

fifa19

8.5

RePack

RDR2

RePack

NEED FOR SPEED™ PAYBACK

5 сезон

9 сезон

Бесстыжие 9 сезон

Все сериалы

все сериалы на PB.wtf

RePack

FAR CRY 5

Anonymous, доброе утро, мы катастрофически не успеваем собрать деньги на оплату серверов, помогите нам пожалуйста 5,10,15р., для нас важна любая помощь . В качестве благодарности мы отключим Вам всю рекламу на сайте (укажите свой ник в строку Ваше имя)!

×
  
Magnet ссылка

Дом страха / Demonic (Уилл Кэнон / Will Canon) [2015, США, Великобритания, ужасы, триллер, HDRip, Любительский (двухголосый)[den904, DeadSno] + ENG piratbit.org

Смотреть онлайн Дом страха | Скачать    Ребята, помогите собрать деньги на оплату серверов!!!

04-06-2015 01:56 Дом страха Скачать торрент  

Дом страха / Demonic


  • Год выпуска: 2015
  • Страна: США, Великобритания
  • Жанр: ужасы, триллер
  • Продолжительность: 01:23:31
  • Перевод: Любительский (двухголосый)[den904, DeadSno]

  • Режиссер: Уилл Кэнон / Will Canon
  • В ролях:

    Мария Белло (Dr. Elizabeth Klein), Фрэнк Грилло (Detective Mark Lewis), Коуди Хорн (Michelle), Дастин Миллиган (John), Меган Парк (Jules), Скотт Мехловиц (Bryan), Аарон Йу (Donnie), Алекс Гуд (Sam), Эштон Ли (Sara Mathews), Терренс Розмор (Jenkins), Джесси Стеккато (Peter), Мейер ДеЛию (Henry)

  • Описание:
    Пятеро студентов найдены мертвыми в заброшенном доме. Расследование возглавили детектив Марк Льюис и криминальный психолог Элизабет Клайн, которые начали с допроса одного из подозреваемых, молодого парня Джона Эскота. Он попытается объяснить им, что же случилось на самом деле. Как оказалось - все погибшие охотились на привидений и были падки на всякую паранормальщину, жертвой которой в один прекрасный момент стали сами. Дом, в который они пришли, является вратами в ад.
  • Рейтинг:



  • Качество: HDRip
  • Формат: :AVI
  • Видео кодек: XviD
  • Аудио кодек: AC3
  • Видео: 720x304 (2.35:1), 1915 kbps, 23,976 fps, 0,365 bpp
  • Аудио №1: Русский 2.0 / 48 kHz / 192 kbps / 16 bit
  • Аудио №2: Английский 5.1 / 48 kHz / 384 kbps / 16 bit
  • Релиз от: GEKADOL

    Код:

    General
    Complete name                            : F:\Demonic.2015.L2.HDRip.avi
    Format                                   : AVI
    Format/Info                              : Audio Video Interleave
    File size                                : 1.46 GiB
    Duration                                 : 1h 23mn
    Overall bit rate                         : 2 505 Kbps
    Writing application                      : VirtualDubMod 1.5.10.3 | www.virtualdub-fr.org || (build 2550/release)
    Writing library                          : VirtualDubMod build 2550/release

    Video
    ID                                       : 0
    Format                                   : MPEG-4 Visual
    Format profile                           : Advanced Simple@L5
    Format settings, BVOP                    : 2
    Format settings, QPel                    : No
    Format settings, GMC                     : No warppoints
    Format settings, Matrix                  : Default (H.263)
    Muxing mode                              : Packed bitstream
    Codec ID                                 : XVID
    Codec ID/Hint                            : XviD
    Duration                                 : 1h 23mn
    Bit rate                                 : 1 915 Kbps
    Width                                    : 720 pixels
    Height                                   : 304 pixels
    Display aspect ratio                     : 2.35:1
    Frame rate                               : 23.976 fps
    Color space                              : YUV
    Chroma subsampling                       : 4:2:0
    Bit depth                                : 8 bits
    Scan type                                : Progressive
    Compression mode                         : Lossy
    Bits/(Pixel*Frame)                       : 0.365
    Stream size                              : 1.12 GiB (76%)
    Writing library                          : XviD 66

    Audio #1
    ID                                       : 1
    Format                                   : AC-3
    Format/Info                              : Audio Coding 3
    Mode extension                           : CM (complete main)
    Codec ID                                 : 2000
    Duration                                 : 1h 23mn
    Bit rate mode                            : Constant
    Bit rate                                 : 192 Kbps
    Channel(s)                               : 2 channels
    Channel positions                        : Front: L R
    Sampling rate                            : 48.0 KHz
    Bit depth                                : 16 bits
    Compression mode                         : Lossy
    Stream size                              : 115 MiB (8%)
    Alignment                                : Split accross interleaves
    Interleave, duration                     : 42 ms (1.00 video frame)
    Interleave, preload duration             : 500 ms

    Audio #2
    ID                                       : 2
    Format                                   : AC-3
    Format/Info                              : Audio Coding 3
    Mode extension                           : CM (complete main)
    Codec ID                                 : 2000
    Duration                                 : 1h 23mn
    Bit rate mode                            : Constant
    Bit rate                                 : 384 Kbps
    Channel(s)                               : 6 channels
    Channel positions                        : Front: L C R, Side: L R, LFE
    Sampling rate                            : 48.0 KHz
    Bit depth                                : 16 bits
    Compression mode                         : Lossy
    Stream size                              : 229 MiB (15%)
    Alignment                                : Split accross interleaves
    Interleave, duration                     : 42 ms (1.00 video frame)
    Interleave, preload duration             : 500 ms




    Скриншоты:



    piratbit.org



  • Торрент не зареган: Не зарегистрирован ||
    Добавлен: 2015-06-04 01:55
    Скачано: 0 раз
    Торрент: [] · скачан:
    Статус: не проверено
    Размер:
    Как cкачать? Как скачать Дом страха через торрент | UTorrent

    28-11-2019 20:33  

    Отключить всю рекламу на сайте

      Дорогой пользователь! Огромная просьба, поблагодарите релизера, оцените раздачу и оставьте свои комментарий, если Вы скачали Дом страха через торрент бесплатно!
      Комментировать посты могут только пользователи прошедшие не сложную регистрацию
      Показать сообщения:    

      Дом страха через торрент
      Скачать бесплатно Дом страха
      Дом страха скачать торрент
      Дом страха смотреть онлайн
      Cкачать фильм Дом страха бесплатно
      Дом страха скачать торрент в хорошем качестве
      Дом страха смотреть онлайн бесплатно в хорошем качестве


      Вы не можете начинать темы
      Вы не можете отвечать на сообщения
      Вы не можете редактировать свои сообщения
      Вы не можете удалять свои сообщения
      Вы не можете голосовать в опросах
      Вы не можете прикреплять файлы к сообщениям
      Вы можете скачивать файлы