Присоединяйтесь к нам в Telegram!, здесь всегда актуальный адрес сайта, оперативная поддержка и многое другое!!

>

5.9

iTunes

7.4

iTunes

9.4

1 сезон

1

7.4

2 сезон

7.2

iTunes

7.3

1 сезон

13

6.1

iTunes

8.3

Пиратка

30

ULTIMATE

pack

9.9

Лицензия

ВАЖНО

ИГРА 18+

pack

7.3

RePack

MK11

7.7

RePack

jed

7.8

RePack

fifa19

8.5

RePack

RDR2

RePack

NEED FOR SPEED™ PAYBACK

5 сезон

9 сезон

Бесстыжие 9 сезон

Все сериалы

все сериалы на PB.wtf

RePack

FAR CRY 5

Anonymous, доброй ночи, мы катастрофически не успеваем собрать деньги на оплату серверов, помогите нам пожалуйста 5,10,15р., для нас важна любая помощь . В качестве благодарности мы отключим Вам всю рекламу на сайте (укажите свой ник в строку Ваше имя)!

×
  
Magnet ссылка

Отбор / The Culling (Растем Бренемен ) [2015, триллер, WEB-DLRip, Любительский (одноголосый) [datynet] piratbit.org

Отбор через торрент piratbit.org

Размер: 1.36 GB | Добавлен: 6 лет 5 мес. назад | Торрент скачан:166 раз
Смотреть онлайн Отбор | Скачать    Ребята, помогите собрать деньги на оплату серверов!!!

06-06-2015 11:12 Отбор Скачать торрент  


Отбор / The Culling
«When the devil breeds...a new evil is born»

ИНФОРМАЦИЯ:
Год выпуска: 2015
Страна: США
Жанр: триллер
Продолжительность: 01:21:55
Перевод: Любительский (одноголосый) [datynet]
Режиссер: Растем Бренемен

В Ролях:


Джереми Самптер (Tyler), Элизабет Дипринсио (Emily), Бретт Даверн (Sean), Крис Кой (Hank), Линси Годфри (Amanda), Вирджиния Уильямс (Val), Джонатон Шек (Wayne), Харли Грэхэм (Lucy), Дженнифер Боуман (Mildred), Челси Брюленд (Young Woman), Сидни Двайер (Demon Child), Элис Форд (Nurse)

Описание:
Пятеро молодых людей выезжают за город чтобы посетить концерт. Однако их планы меняются кардинальным образом когда друзья находят на парковке семилетнюю девочку, которая по непонятным причинам осталась одна. Проводив девочку к одиноко стоящему дому они оказываются вынуждены остаться там на ночь, что вовсе не предусмотрело некое зло, обитающее в доме, зло, с которым и предстоит столкнуться ребятам.

  • Мировая премьера:15 марта 2015

    ТЕХ.ДАННЫЕ:
    Качество: WEB-DLRip
    Формат: AVI
    Видео кодек: XviD
    Аудио кодек: AC3
    Видео: XviD, 720x400 (16:9), 1897 kbps, 23,976 fps, 0,275 bpp
    Аудио: AC3 / 5.1 / 48 kHz / 384 kbps / 16 bit



    Код:

    General
    Complete name                            : D:\Торенты\The.Culling.2015.L1.WEB-DLRip.avi
    Format                                   : AVI
    Format/Info                              : Audio Video Interleave
    File size                                : 1.36 GiB
    Duration                                 : 1h 21mn
    Overall bit rate                         : 2 385 Kbps
    Writing application                      : VirtualDubMod 1.5.10.3 | www.virtualdub-fr.org || (build 2550/release)
    Writing library                          : VirtualDubMod build 2550/release

    Video
    ID                                       : 0
    Format                                   : MPEG-4 Visual
    Format profile                           : Advanced Simple@L5
    Format settings, BVOP                    : 1
    Format settings, QPel                    : No
    Format settings, GMC                     : No warppoints
    Format settings, Matrix                  : Custom
    Codec ID                                 : XVID
    Codec ID/Hint                            : XviD
    Duration                                 : 1h 21mn
    Bit rate                                 : 1 898 Kbps
    Width                                    : 720 pixels
    Height                                   : 400 pixels
    Display aspect ratio                     : 16:9
    Frame rate                               : 23.976 fps
    Color space                              : YUV
    Chroma subsampling                       : 4:2:0
    Bit depth                                : 8 bits
    Scan type                                : Progressive
    Compression mode                         : Lossy
    Bits/(Pixel*Frame)                       : 0.275
    Stream size                              : 1.09 GiB (80%)
    Writing library                          : XviD 73

    Audio
    ID                                       : 1
    Format                                   : AC-3
    Format/Info                              : Audio Coding 3
    Mode extension                           : CM (complete main)
    Codec ID                                 : 2000
    Duration                                 : 1h 21mn
    Bit rate mode                            : Constant
    Bit rate                                 : 384 Kbps
    Channel(s)                               : 6 channels
    Channel positions                        : Front: L C R, Side: L R, LFE
    Sampling rate                            : 48.0 KHz
    Bit depth                                : 16 bits
    Compression mode                         : Lossy
    Stream size                              : 225 MiB (16%)
    Alignment                                : Split accross interleaves

    Скриншоты:


    © Оформление by Ворон
    piratbit.org



  • Скачать Отбор через торрент https://pic1.kartinco.top/images/61/ordi9.jpg Скачать, смотреть онлайн Отбор бесплантно в хорошем качестве Описание: Пятеро молодых людей выезжают за город чтобы посетить концерт. Однако их планы меняются кардинальным образом когда друзья находят ... 10 10 4
    Торрент: Зарегистрирован [2015-06-06 11:12] · скачан: 166 раз
    Статус: √ проверено
    Размер: 1.36 GB
    Как cкачать? Как скачать Отбор через торрент | UTorrent

    28-11-2019 20:33  

    Отключить всю рекламу на сайте

      Дорогой пользователь! Огромная просьба, поблагодарите релизера, оцените раздачу и оставьте свои комментарий, если Вы скачали Отбор через торрент бесплатно!
      Комментировать посты могут только пользователи прошедшие не сложную регистрацию
      Показать сообщения:    

      Отбор через торрент
      Скачать бесплатно Отбор
      Отбор скачать торрент
      Отбор смотреть онлайн
      Cкачать фильм Отбор бесплатно
      Отбор скачать торрент в хорошем качестве
      Отбор смотреть онлайн бесплатно в хорошем качестве


      Вы не можете начинать темы
      Вы не можете отвечать на сообщения
      Вы не можете редактировать свои сообщения
      Вы не можете удалять свои сообщения
      Вы не можете голосовать в опросах
      Вы не можете прикреплять файлы к сообщениям
      Вы можете скачивать файлы