Присоединяйтесь к нам в Telegram!, здесь всегда актуальный адрес сайта, оперативная поддержка и многое другое!!

>

5.9

iTunes

7.4

iTunes

9.4

1 сезон

1

7.4

2 сезон

7.2

iTunes

7.3

1 сезон

13

6.1

iTunes

8.3

GOG

30

ULTIMATE

pack

9.9

Лицензия

ВАЖНО

ИГРА 18+

pack

7.3

RePack

MK11

7.7

RePack

jed

7.8

RePack

fifa19

8.5

RePack

RDR2

RePack

NEED FOR SPEED™ PAYBACK

5 сезон

9 сезон

Бесстыжие 9 сезон

Все сериалы

все сериалы на PB.wtf

RePack

FAR CRY 5

Anonymous, доброе утро, мы катастрофически не успеваем собрать деньги на оплату серверов, помогите нам пожалуйста 5,10,15р., для нас важна любая помощь . В качестве благодарности мы отключим Вам всю рекламу на сайте (укажите свой ник в строку Ваше имя)!

×
  
Magnet ссылка

Смейся, убийца, смейся / Laugh Killer Laugh (Камаль Ахмед ) [2014, криминал, HDTVRip, Любительский (двухголосый) piratbit.org

Смейся, убийца, смейся через торрент piratbit.org

Размер: 1.29 GB | Добавлен: 6 лет 5 мес. назад | Торрент скачан:165 раз
Смотреть онлайн Смейся, убийца, смейся | Скачать    Ребята, помогите собрать деньги на оплату серверов!!!

06-06-2015 17:16 Смейся, убийца, смейся Скачать торрент  


Смейся, убийца, смейся / Laugh Killer Laugh


ИНФОРМАЦИЯ:
Год выпуска: 2014
Страна: США
Жанр: криминал
Продолжительность: 01:37:36
Перевод: Любительский (двухголосый)
Режиссер: Камаль Ахмед

В Ролях:


Уильям Форсайт (Frank Stone), Бьянка Хантер (Jackie), Том Сайзмор (Orphanage Headmaster), Виктор Количчио (Tough Tony), Ларри Романо (Vinny), Роберт МакНотон (Creative Writing Teacher), Урсула Андерман (Student), Роберт Аренсен (Dylan), Radu Bentia (Romanian diamond dealer), Денни Бесс (Billy Bob), Анджело Бонсиньоре (Salvatore), Джино Кафарелли (Detective Maas)

Описание:
Вор по имени Фрэнк "камень" , анти-социальный, застенчивый человек, который не находит радости или юмора в чем угодно - до тех пор, пока он не пробуждается от глубокой комы с измененной личностью.


ТЕХ.ДАННЫЕ:
Качество: HDTVRip
Формат: AVI
Видео кодек: xvid
Аудио кодек: MP3
Видео: xvid, 720x400 (16:9), 1620 kbps, 23,976 fps, 0,235 bpp
Аудио: MP3 / 2.0 / 44 kHz / 192 kbps /



Код:

General
Complete name                            : D:\Торенты\Laugh.Killer.Laugh.2015.L2.HDTVRip.avi
Format                                   : AVI
Format/Info                              : Audio Video Interleave
File size                                : 1.29 GiB
Duration                                 : 1h 37mn
Overall bit rate                         : 1 897 Kbps
Writing application                      : VirtualDubMod 1.5.10.2 (build 2540/release)
Writing library                          : VirtualDubMod build 2540/release

Video
ID                                       : 0
Format                                   : xvid
Codec ID                                 : xvid
Duration                                 : 1h 37mn
Bit rate                                 : 1 621 Kbps
Width                                    : 720 pixels
Height                                   : 400 pixels
Display aspect ratio                     : 16:9
Frame rate                               : 23.976 fps
Bits/(Pixel*Frame)                       : 0.235
Stream size                              : 1.11 GiB (85%)

Audio
ID                                       : 1
Format                                   : MPEG Audio
Format version                           : Version 1
Format profile                           : Layer 3
Codec ID                                 : 55
Codec ID/Hint                            : MP3
Duration                                 : 1h 37mn
Bit rate mode                            : Constant
Bit rate                                 : 192 Kbps
Channel(s)                               : 2 channels
Sampling rate                            : 44.1 KHz
Compression mode                         : Lossy
Stream size                              : 134 MiB (10%)
Alignment                                : Split accross interleaves

Скриншоты:


© Оформление by Ворон
piratbit.org



Скачать Смейся, убийца, смейся через торрент https://pic1.kartinco.top/images/61/ordi9.jpg Скачать, смотреть онлайн Смейся, убийца, смейся бесплантно в хорошем качестве Описание: Вор по имени Фрэнк "камень" , анти-социальный, застенчивый человек, который не находит радости или юмора в чем угодно - до тех ... 10 10 7
Торрент: Зарегистрирован [2015-06-06 17:16] · скачан: 165 раз
Статус: T временная
Размер: 1.29 GB
Как cкачать? Как скачать Смейся, убийца, смейся через торрент | UTorrent

% Раздел Тема Автор DL S | L
T Фильмы 2015 [DVDrip, WEB-DLRip, HDrip] [ 747 MB ] Смейся убийца смейся / Laugh Killer Laugh [2015 HDTVRip by _Один_777] MVO Один 777 Скачать
1 | 0

28-11-2019 20:33  

Отключить всю рекламу на сайте

    Дорогой пользователь! Огромная просьба, поблагодарите релизера, оцените раздачу и оставьте свои комментарий, если Вы скачали Смейся, убийца, смейся через торрент бесплатно!
    Комментировать посты могут только пользователи прошедшие не сложную регистрацию
    Показать сообщения:    

    Смейся, убийца, смейся через торрент
    Скачать бесплатно Смейся, убийца, смейся
    Смейся, убийца, смейся скачать торрент
    Смейся, убийца, смейся смотреть онлайн
    Cкачать фильм Смейся, убийца, смейся бесплатно
    Смейся, убийца, смейся скачать торрент в хорошем качестве
    Смейся, убийца, смейся смотреть онлайн бесплатно в хорошем качестве


    Вы не можете начинать темы
    Вы не можете отвечать на сообщения
    Вы не можете редактировать свои сообщения
    Вы не можете удалять свои сообщения
    Вы не можете голосовать в опросах
    Вы не можете прикреплять файлы к сообщениям
    Вы можете скачивать файлы