Доктор Стрэндж

Лицензия

Добыча

Дубляж

Дом дракона

1 сезон

Тор

Дубляж

В эфире

Дубляж

Там, где раки поют

MVO

Властелин колец

1 сезон

Ultimate

pack

Рекомендуем

30

Пиратка

ВАЖНО

ВАЖНО

Ghostwire

Пиратка

jed

RePack

nioh2

RePack

RDR2

RePack

NEED FOR SPEED™ PAYBACK

RePack

скачать торрент

Кинопоиск HD

Острые козырьки 6 сезон

6 сезон

FAR CRY 6

RePack

скачать торрент

Лицензия

скачать торрент

MVO

1

1 сезон

скачать торрент

1 сезон

скачать торрент

Лицензия

  

Глубоко во тьме / Deep in the Darkness (Колин Тейс ) [2014, ужасы, триллер, BDRip 720p, Любительский (двухголосый) [2D]

Глубоко во тьме через торрент piratbit.org

Размер: 4.63 GB | Добавлен: 7 лет 5 мес. назад | Торрент скачан:26 раз
Смотреть онлайн | Скачать   

07-06-2015 06:02 Глубоко во тьме Скачать торрент  

Глубоко во тьме / Deep in the Darkness
«A quiet town. A deadly secret»

ИНФОРМАЦИЯ:
Год выпуска: 2014
Страна: США
Жанр: ужасы, триллер
Продолжительность: 01:41:08
Перевод: Любительский (двухголосый) [2D]
Режиссер: Колин Тейс

В Ролях:


Дин Стокуэлл (Phil Deighton), Шон Патрик Томас (Dr. Michael Cayle), Бланш Бейкер (Zellis), Кристен Буш (Cristine Cayle), Дина Катальди (Joanna Harper), Энтони Дель Негро (Tyler Deighton), Cara Loften (Lauren Hunter), Кристина Костелло (Isolate), Адзуми Тсутсуи (Isolate), Стивен А. Миллер (Sam Harper), Jacqui Denski (Isolate), Афина Грант (Jessica Cayle)

Описание:
Доктор Майкл Кейл получает приглашение открыть практику в небольшом городке Эшборо. Устав от суеты большого города, он с женой и дочерью, приезжает в этот милый и уютный городишко с, казалось бы, приветливыми и дружелюбными жителями, но вскоре его семье предстоит узнать, что за скелеты в шкафу скрывают жители Эшборо, какие темные тайны таятся за личинами добрых христиан.

  • Мировая премьера:29 апреля 2014

    ТЕХ.ДАННЫЕ:
    Качество: BDRip 720p
    Формат: MKV
    Видео кодек: AVC
    Аудио кодек: AC3, DTS
    Видео: AVC, 1280x536 (2.40:1), 4661 kbps, 23,976 fps, 0,283 bpp
    Аудио №1: AC3 / 5.1 / 48 kHz / 384 kbps / Любительский (двухголосый) [2D]
    Аудио №2: английский / DTS / 5.1 / 48 kHz / 1510 kbps / 24 bit
    Навигация по главам: есть



    Код:

    General
    Unique ID                                : 212752781860924159569478151700713494064 (0xA00EB20164BFEBE5AB8B30364C6AD630)
    Complete name                            : D:\Торенты\Deep.in.the.Darkness.L2.BDRip.720p.mkv
    Format                                   : Matroska
    Format version                           : Version 2
    File size                                : 4.63 GiB
    Duration                                 : 1h 41mn
    Overall bit rate                         : 6 553 Kbps
    Encoded date                             : UTC 2015-06-04 03:44:34
    Writing application                      : mkvmerge v7.8.0 ('River Man') 64bit built on Mar 27 2015 16:31:37
    Writing library                          : libebml v1.3.1 + libmatroska v1.4.2

    Video
    ID                                       : 1
    Format                                   : AVC
    Format/Info                              : Advanced Video Codec
    Format profile                           : High@L4.1
    Format settings, CABAC                   : Yes
    Format settings, ReFrames                : 5 frames
    Codec ID                                 : V_MPEG4/ISO/AVC
    Duration                                 : 1h 41mn
    Bit rate                                 : 4 661 Kbps
    Width                                    : 1 280 pixels
    Height                                   : 536 pixels
    Display aspect ratio                     : 2.40:1
    Frame rate                               : 23.976 fps
    Color space                              : YUV
    Chroma subsampling                       : 4:2:0
    Bit depth                                : 8 bits
    Scan type                                : Progressive
    Bits/(Pixel*Frame)                       : 0.283
    Stream size                              : 3.20 GiB (69%)
    Writing library                          : x264 core 146 r2538 121396c
    Encoding settings                        : cabac=1 / ref=5 / deblock=1:0:0 / analyse=0x3:0x113 / me=umh / subme=8 / psy=1 / psy_rd=1.00:0.00 / mixed_ref=1 / me_range=16 / chroma_me=1 / trellis=1 / 8x8dct=1 / cqm=0 / deadzone=21,11 / fast_pskip=0 / chroma_qp_offset=-2 / threads=12 / lookahead_threads=2 / sliced_threads=0 / nr=0 / decimate=1 / interlaced=0 / bluray_compat=0 / constrained_intra=0 / bframes=3 / b_pyramid=2 / b_adapt=2 / b_bias=0 / direct=3 / weightb=1 / open_gop=0 / weightp=2 / keyint=250 / keyint_min=23 / scenecut=40 / intra_refresh=0 / rc_lookahead=50 / rc=2pass / mbtree=1 / bitrate=4661 / ratetol=1.0 / qcomp=0.60 / qpmin=0 / qpmax=69 / qpstep=4 / cplxblur=20.0 / qblur=0.5 / ip_ratio=1.40 / aq=1:1.00
    Language                                 : English
    Default                                  : Yes
    Forced                                   : No

    Audio #1
    ID                                       : 2
    Format                                   : AC-3
    Format/Info                              : Audio Coding 3
    Mode extension                           : CM (complete main)
    Codec ID                                 : A_AC3
    Duration                                 : 1h 41mn
    Bit rate mode                            : Constant
    Bit rate                                 : 384 Kbps
    Channel(s)                               : 6 channels
    Channel positions                        : Front: L C R, Side: L R, LFE
    Sampling rate                            : 48.0 KHz
    Bit depth                                : 16 bits
    Compression mode                         : Lossy
    Stream size                              : 278 MiB (6%)
    Default                                  : Yes
    Forced                                   : Yes

    Audio #2
    ID                                       : 3
    Format                                   : DTS
    Format/Info                              : Digital Theater Systems
    Codec ID                                 : A_DTS
    Duration                                 : 1h 41mn
    Bit rate mode                            : Constant
    Bit rate                                 : 1 510 Kbps
    Channel(s)                               : 6 channels
    Channel positions                        : Front: L C R, Side: L R, LFE
    Sampling rate                            : 48.0 KHz
    Bit depth                                : 24 bits
    Compression mode                         : Lossy
    Stream size                              : 1.07 GiB (23%)
    Language                                 : English
    Default                                  : No
    Forced                                   : No

    Menu
    00:00:00.000                             : en:00:00:00.000
    00:01:28.797                             : en:00:01:28.797
    00:15:45.528                             : en:00:15:45.528
    00:29:37.567                             : en:00:29:37.567
    00:44:43.180                             : en:00:44:43.180
    00:59:32.068                             : en:00:59:32.068
    01:15:24.895                             : en:01:15:24.895
    01:39:01.435                             : en:01:39:01.435

    Скриншоты:



  • Скачать Глубоко во тьме через торрент http://i71.fastpic.ru/big/2015/0607/76/7582c708300674039b30d7f4f3300b76.jpg Скачать, смотреть онлайн Глубоко во тьме бесплантно в хорошем качестве Описание: Доктор Майкл Кейл получает приглашение открыть практику в небольшом городке Эшборо. Устав от суеты большого города, он с женой и ... 2 10 1
    Торрент: Зарегистрирован [2015-06-07 06:02] · скачан: 26 раз
    Статус: T временная
    Размер: 4.63 GB
    Как cкачать? Как скачать Глубоко во тьме через торрент | UTorrent

    % Раздел Тема Автор DL S | L
    T Фильмы 2014 (Звук TS, Cam, VO, DVO) [ 1.37 GB ] Глубоко во тьме / Deep in the Darkness | | HDRip, Любительский (двухголосый Ворон Скачать
    1 | 1

    28-11-2019 20:33  


    Отключить вcю реклaмy на сайте, в т.ч. и в плеере онлайн просмотра!

      Дорогой пользователь! Огромная просьба, поблагодарите релизера, оцените раздачу и оставьте свои комментарий, если Вы скачали Глубоко во тьме через торрент бесплатно!!
      Комментировать посты могут только пользователи прошедшие не сложную регистрацию
      Показать сообщения:    


      Глубоко во тьме через торрент
      Скачать бесплатно Глубоко во тьме
      Глубоко во тьме скачать торрент
      Глубоко во тьме смотреть онлайн
      Cкачать фильм Глубоко во тьме бесплатно
      Глубоко во тьме скачать торрент в хорошем качестве
      Глубоко во тьме смотреть онлайн бесплатно в хорошем качестве
      Вы не можете начинать темы
      Вы не можете отвечать на сообщения
      Вы не можете редактировать свои сообщения
      Вы не можете удалять свои сообщения
      Вы не можете голосовать в опросах
      Вы не можете прикреплять файлы к сообщениям
      Вы можете скачивать файлы
      Глубоко во тьме / Deep in the Darkness [2014, ужасы, триллер, BDRip 720p, Любительский [2D] смотреть онлайн, скачать торрент picoco.icu