Присоединяйтесь к нам в Telegram!, здесь всегда актуальный адрес сайта, оперативная поддержка и многое другое!!

>

5.9

iTunes

7.4

iTunes

9.4

1 сезон

1

7.4

2 сезон

7.2

iTunes

7.3

1 сезон

13

6.1

iTunes

8.3

GOG

30

ULTIMATE

pack

9.9

Лицензия

ВАЖНО

ИГРА 18+

pack

7.3

RePack

MK11

7.7

RePack

jed

7.8

RePack

fifa19

8.5

RePack

RDR2

RePack

NEED FOR SPEED™ PAYBACK

5 сезон

9 сезон

Бесстыжие 9 сезон

Все сериалы

все сериалы на PB.wtf

RePack

FAR CRY 5

Anonymous, добрый день, мы катастрофически не успеваем собрать деньги на оплату серверов, помогите нам пожалуйста 5,10,15р., для нас важна любая помощь . В качестве благодарности мы отключим Вам всю рекламу на сайте (укажите свой ник в строку Ваше имя)!

×
  
Magnet ссылка

Битва за Скайарк / Battle for Skyark (Саймон Хунг / Simon Hung) [2015, США, фантастика, боевик, приключения, HDRip, Любительский (одноголосый) [datynet] piratbit.org

Битва за Скайарк через торрент piratbit.org

Размер: 1.27 GB | Добавлен: 6 лет 5 мес. назад | Торрент скачан:714 раз
Смотреть онлайн Битва за Скайарк | Скачать    Ребята, помогите собрать деньги на оплату серверов!!!

10-06-2015 12:35 Битва за Скайарк Скачать торрент  

Битва за Скайарк / Battle for Skyark


  • Год выпуска: 2015
  • Страна: США
  • Жанр: фантастика, боевик, приключения, семейный
  • Продолжительность: 01:28:04
  • Перевод: Любительский (одноголосый)[datynet]

  • Режиссер: Саймон Хунг / Simon Hung
  • В ролях:

    Каон Мортенсон (Rags), Гаррет Коффи (Rusty), Taylor Coliee (Lily), Райли Джейн (Birdie), Чантал Тхюй (Dark seeker), Джада Фейсер (Ember), Мэттью Миллер (Can can), Кайл Пацек (Stand-In), Джейден Мартин (Spindle), Алан Петрушевски (Sabre), Марлен Окнер (Grieving Banshee), Сиркус-Шалевски (Judge)

  • Описание:
    Недалекое будущее. Земля захвачена инопланетными монстрами, и жить на ней стало невозможно. Монстры не только превратили Землю в подобие свалки, но еще и продолжают уничтожать оставшееся немногочисленное население, состоящее в основном из осиротевших в результате продолжительной войны детей. Единственная возможность спастись, это попасть на огромный космический корабль «СкайАрк», являющийся последним выбором для продолжения жизни людей. Отважный сын погибшего командира берет на себя роль спасителя. Он вместе со своими друзьями борется с монстрами, пробиваясь к морю, где СкайАрк должен их всех забрать с погибшей планеты...
  • Рейтинг:



  • Качество: HDRip
  • Формат: :AVI
  • Видео кодек: XviD
  • Аудио кодек: MP3
  • Видео: 720x304 (2.35:1), 1857 kbps, 23,976 fps, 0,354 bpp
  • Аудио: 2.0 / 44 kHz / 192 kbps
  • Релиз от: GEKADOL

    Код:

    General
    Complete name                            : F:\Battle.for.Skyark.2015.avi
    Format                                   : AVI
    Format/Info                              : Audio Video Interleave
    File size                                : 1.27 GiB
    Duration                                 : 1h 28mn
    Overall bit rate                         : 2 059 Kbps
    Writing application                      : AVI-Mux GUI 1.17.8.3, Feb 16 201019:42:50
    Writing library                          : VirtualDub build 34753/release

    Video
    ID                                       : 0
    Format                                   : MPEG-4 Visual
    Format profile                           : Advanced Simple@L5
    Format settings, BVOP                    : 2
    Format settings, QPel                    : No
    Format settings, GMC                     : No warppoints
    Format settings, Matrix                  : Default (H.263)
    Muxing mode                              : Packed bitstream
    Codec ID                                 : XVID
    Codec ID/Hint                            : XviD
    Duration                                 : 1h 28mn
    Bit rate                                 : 1 857 Kbps
    Width                                    : 720 pixels
    Height                                   : 304 pixels
    Display aspect ratio                     : 2.35:1
    Frame rate                               : 23.976 fps
    Color space                              : YUV
    Chroma subsampling                       : 4:2:0
    Bit depth                                : 8 bits
    Scan type                                : Progressive
    Compression mode                         : Lossy
    Bits/(Pixel*Frame)                       : 0.354
    Stream size                              : 1.14 GiB (90%)
    Writing library                          : XviD 66

    Audio
    ID                                       : 1
    Format                                   : MPEG Audio
    Format version                           : Version 1
    Format profile                           : Layer 3
    Codec ID                                 : 55
    Codec ID/Hint                            : MP3
    Duration                                 : 1h 28mn
    Bit rate mode                            : Constant
    Bit rate                                 : 192 Kbps
    Channel(s)                               : 2 channels
    Sampling rate                            : 44.1 KHz
    Compression mode                         : Lossy
    Stream size                              : 121 MiB (9%)
    Alignment                                : Split accross interleaves
    Interleave, duration                     : 42 ms (1.00 video frame)
    Interleave, preload duration             : 500 ms




    Скриншоты:



    piratbit.org



  • Скачать Битва за Скайарк через торрент http://i6.imageban.ru/out/2015/06/10/e80019661129240fd072f430ea6c905b.jpg Скачать, смотреть онлайн Битва за Скайарк бесплантно в хорошем качестве Описание: Недалекое будущее. Земля захвачена инопланетными монстрами, и жить на ней стало невозможно. Монстры не только превратили Землю в ... 8.1 10 22
    Торрент: Зарегистрирован [2015-06-10 12:35] · скачан: 714 раз
    Статус: T временная
    Размер: 1.27 GB
    Как cкачать? Как скачать Битва за Скайарк через торрент | UTorrent

    28-11-2019 20:33  

    Отключить всю рекламу на сайте

    10-06-2015 14:10 Битва за Скайарк Скачать торрент  

    трэш или нет?piratbit.org



    10-06-2015 14:27 Битва за Скайарк Скачать торрент  

    Не знаю кто на скринах, парень или девчонка, но фейсы делает крутые..piratbit.org



    10-06-2015 16:29 Битва за Скайарк Скачать торрент  

    рейтинг-два и семь десятых впечатляетpiratbit.org



    13-06-2015 16:50 Битва за Скайарк Скачать торрент  

    Филльм для детей 10-13 лет.piratbit.org



    16-06-2015 17:14 Битва за Скайарк Скачать торрент  

    Отстой....piratbit.org



      Дорогой пользователь! Огромная просьба, поблагодарите релизера, оцените раздачу и оставьте свои комментарий, если Вы скачали Битва за Скайарк через торрент бесплатно!
      Комментировать посты могут только пользователи прошедшие не сложную регистрацию
      Показать сообщения:    

      Битва за Скайарк через торрент
      Скачать бесплатно Битва за Скайарк
      Битва за Скайарк скачать торрент
      Битва за Скайарк смотреть онлайн
      Cкачать фильм Битва за Скайарк бесплатно
      Битва за Скайарк скачать торрент в хорошем качестве
      Битва за Скайарк смотреть онлайн бесплатно в хорошем качестве


      Вы не можете начинать темы
      Вы не можете отвечать на сообщения
      Вы не можете редактировать свои сообщения
      Вы не можете удалять свои сообщения
      Вы не можете голосовать в опросах
      Вы не можете прикреплять файлы к сообщениям
      Вы можете скачивать файлы