Присоединяйтесь к нам в Telegram!, здесь всегда актуальный адрес сайта, оперативная поддержка и многое другое!!

>

5.9

iTunes

7.4

iTunes

9.4

1 сезон

1

7.4

2 сезон

7.2

iTunes

7.3

1 сезон

13

6.1

iTunes

8.3

GOG

30

ULTIMATE

pack

9.9

Лицензия

ВАЖНО

ИГРА 18+

pack

7.3

RePack

MK11

7.7

RePack

jed

7.8

RePack

fifa19

8.5

RePack

RDR2

RePack

NEED FOR SPEED™ PAYBACK

5 сезон

9 сезон

Бесстыжие 9 сезон

Все сериалы

все сериалы на PB.wtf

RePack

FAR CRY 5

Anonymous, добрый день, мы катастрофически не успеваем собрать деньги на оплату серверов, помогите нам пожалуйста 5,10,15р., для нас важна любая помощь . В качестве благодарности мы отключим Вам всю рекламу на сайте (укажите свой ник в строку Ваше имя)!

×
  
Magnet ссылка

Самоволка-72 / AWOL-72 (Кристиан Сесма / Christian Sesma) [2015, США, триллер, DVDRip, Любительский (одноголосый) [Xixidok] + ENG piratbit.org

Самоволка-72 через торрент piratbit.org

Размер: 1.45 GB | Добавлен: 6 лет 5 мес. назад | Торрент скачан:362 раза
Смотреть онлайн Самоволка-72 | Скачать    Ребята, помогите собрать деньги на оплату серверов!!!

18-06-2015 04:04 Самоволка-72 Скачать торрент  

Самоволка-72 / AWOL-72


  • Год выпуска: 2015
  • Страна: США
  • Жанр: триллер
  • Продолжительность: 01:19:13
  • Перевод: Любительский (одноголосый) [Xixidok]

  • Режиссер: Кристиан Сесма / Christian Sesma
  • В ролях:

    Люк Госс (Conrad Miller), RZA (Det. Adams), Букем Вудбайн (Myron), Брук Ньютон (Sam), Луис Мэндилор (Ray), Хезер Руп (Laura Wilder), Мирта Мишель (Amanda), Лейф Гантвурт (Tony), Марко Хэнлиэн (Apache), Джуллиса Линн (Natasha), Томоко Карина (Slave), Мэри Кристина Браун (Monica)

  • Описание:
    Главный герой решил испытать судьбу и самостоятельно назначить себе увольнительную, попросту говоря, отправляется в самоволку. Знал бы он, что его ожидает впереди, зарекся бы туда ходить в будущем. Так случилось, что именно этому молодому человеку стали доступны сведения чрезвычайной важности. Потому им и заинтересовались представители обороны, причем на правительственном уровне. Конечно же, у него есть свои козыри на руках, в виде информации, но воспользоваться ими он не может.
    Он – морской пехотинец, а, как известно, такие ребята в обиду себя не дают. Однако что же ему делать, если охоту за ним начинают не только бойцы русского спецназа, но и полиция славного американского народа, из огромного Лос-Анджелеса. Но, по воле случая, выслеживает его еще и один из самых опасных убийц современности, ведь у него есть индивидуальный, оценённый достаточно высоко, заказ.
    Доступная солдату информация представляет собой тайну государственной важности, за раскрытие которой большинство группировок отдали бы очень многое. А вот самому государству это может принести крупные неприятности, причем в международном масштабе. Поэтому молодой человек попал в настоящий водоворот событий, которые могут завершиться для него не самым приятным образом.
    Сможет ли главный персонаж все-таки выпутаться из невероятной ситуации, в которую попал? Хватит ли ему сил, упорства и мужественности, чтобы выйти победителем из такой жесткой и непростой переделки?
  • Рейтинг:



  • Качество: DVDRip
  • Формат: :AVI
  • Видео кодек: XviD
  • Аудио кодек: AC3
  • Видео: 720x304 (2.35:1), 1613 kbps, 25 fps, 0,295 bpp
  • Аудио №1: Русский 5.1 / 48 kHz / 448 kbps / 16 bit
  • Аудио №2: Английский 5.1 / 48 kHz / 448 kbps / 16 bit
  • Релиз от: GEKADOL

    Код:

    General
    Complete name                            : D:\Фильмы\AWOL72.2015.xixidok.DVDRip.ExKinoRay.avi
    Format                                   : AVI
    Format/Info                              : Audio Video Interleave
    File size                                : 1.45 GiB
    Duration                                 : 1h 19mn
    Overall bit rate                         : 2 624 Kbps
    Director                                 : ExKinoRay
    Writing application                      : VirtualDubMod 1.5.10.2 (build 2540/release)
    Writing library                          : VirtualDubMod build 2540/release

    Video
    ID                                       : 0
    Format                                   : MPEG-4 Visual
    Format profile                           : Advanced Simple@L5
    Format settings, BVOP                    : 1
    Format settings, QPel                    : No
    Format settings, GMC                     : No warppoints
    Format settings, Matrix                  : Custom
    Codec ID                                 : XVID
    Codec ID/Hint                            : XviD
    Duration                                 : 1h 19mn
    Bit rate                                 : 1 613 Kbps
    Width                                    : 720 pixels
    Height                                   : 304 pixels
    Display aspect ratio                     : 2.35:1
    Frame rate                               : 25.000 fps
    Color space                              : YUV
    Chroma subsampling                       : 4:2:0
    Bit depth                                : 8 bits
    Scan type                                : Progressive
    Compression mode                         : Lossy
    Bits/(Pixel*Frame)                       : 0.295
    Stream size                              : 914 MiB (61%)
    Writing library                          : XviD 73

    Audio #1
    ID                                       : 1
    Format                                   : AC-3
    Format/Info                              : Audio Coding 3
    Mode extension                           : CM (complete main)
    Codec ID                                 : 2000
    Duration                                 : 1h 19mn
    Bit rate mode                            : Constant
    Bit rate                                 : 448 Kbps
    Channel(s)                               : 6 channels
    Channel positions                        : Front: L C R, Side: L R, LFE
    Sampling rate                            : 48.0 KHz
    Bit depth                                : 16 bits
    Compression mode                         : Lossy
    Stream size                              : 254 MiB (17%)
    Alignment                                : Split accross interleaves
    Title                                    : xixidok

    Audio #2
    ID                                       : 2
    Format                                   : AC-3
    Format/Info                              : Audio Coding 3
    Mode extension                           : CM (complete main)
    Codec ID                                 : 2000
    Duration                                 : 1h 19mn
    Bit rate mode                            : Constant
    Bit rate                                 : 448 Kbps
    Channel(s)                               : 6 channels
    Channel positions                        : Front: L C R, Side: L R, LFE
    Sampling rate                            : 48.0 KHz
    Bit depth                                : 16 bits
    Compression mode                         : Lossy
    Stream size                              : 254 MiB (17%)
    Alignment                                : Split accross interleaves




    Скриншоты:
    скриншот   скриншот   скриншот   скриншот   скриншот  
    скриншот  


    piratbit.org



  • Скачать Самоволка-72 через торрент http://i1.imageban.ru/out/2015/06/18/cfbe8b1784a2a2bc01a5d07023004bd0.jpg Скачать, смотреть онлайн Самоволка-72 бесплантно в хорошем качестве Описание: Главный герой решил испытать судьбу и самостоятельно назначить себе увольнительную, попросту говоря, отправляется в самоволку. ... 8.9 10 13
    Торрент: Зарегистрирован [2015-06-18 04:04] · скачан: 362 раз
    Статус: T временная
    Размер: 1.45 GB
    Как cкачать? Как скачать Самоволка-72 через торрент | UTorrent

    28-11-2019 20:33  

    Отключить всю рекламу на сайте

    18-06-2015 06:14 Самоволка-72 Скачать торрент  

    Очередное говно про суперпиндосовpiratbit.org



      Дорогой пользователь! Огромная просьба, поблагодарите релизера, оцените раздачу и оставьте свои комментарий, если Вы скачали Самоволка-72 через торрент бесплатно!
      Комментировать посты могут только пользователи прошедшие не сложную регистрацию
      Показать сообщения:    

      Самоволка-72 через торрент
      Скачать бесплатно Самоволка-72
      Самоволка-72 скачать торрент
      Самоволка-72 смотреть онлайн
      Cкачать фильм Самоволка-72 бесплатно
      Самоволка-72 скачать торрент в хорошем качестве
      Самоволка-72 смотреть онлайн бесплатно в хорошем качестве


      Вы не можете начинать темы
      Вы не можете отвечать на сообщения
      Вы не можете редактировать свои сообщения
      Вы не можете удалять свои сообщения
      Вы не можете голосовать в опросах
      Вы не можете прикреплять файлы к сообщениям
      Вы можете скачивать файлы