Ссылка на приватное зеркало нашего сайта всего за 1$. Внимание количество ограничено!!!

2 сезон

iTunes

iTunes

1

iTunes

iTunes

iTunes

WEBRip

iTunes

30
pack

Забери бонус

ВАЖНО

!!Акция!!

Alien_RageХит недели

RePack

RESIDENT EVIL 3: NEMESIS REMAKE

ИГРА 18+

pack

RePack

jed

!!Акция!!

Alien_Rage

RePack

fifa19

RePack

Assassins Creed: Odyssey

RePack

NEED FOR SPEED™ PAYBACK

4 сезон

9 сезон

Бесстыжие 9 сезон

Все сериалы

все сериалы на PB.wtf

RePack

FAR CRY 5
  

Железнодорожный роман / Roman de gare (Клод Лелуш) [2007, триллер, драма, BDRip AVC] MVO piratbit.org

Железнодорожный роман через торрент piratbit.org

Размер: 2.46 GB | Добавлен: 5 лет 3 мес. назад | Торрент скачан:71 раз
Скачать  

24-06-2015 16:35 Железнодорожный роман Скачать торрент  


Название: Железнодорожный роман
Оригинальное название: Roman de gare
Год выпуска: 2007
Страна: Франция
Жанр: триллер, драма
Продолжительность: 01:44:51
Перевод: профессиональный многоголосый

Режиссёр: Клод Лелуш

В ролях: Доминик Пинон, Фанни Ардан, Одри Дана, Мишель Бернье, Мириам Бойер, Зинедин Солем, Борис Вентура, Марк Риуфол, Томас Ле Дуарец, Ив Битун, Ребекка Бланк, Жером Кашон, Мари-Виктуар Дебре, Эрик Делкур, Сирилл Элдин, Арлетт Гордон, Уильям Леймержи

Описание: Полиция допрашивает писательницу Жюдит Ралитцер, которую подозревают в убийстве. Но кто её жертва? Из тюрьмы сбегает серийный убийца по кличке Фокусник, названным так из-за привычки показывать фокусы своим жертвам. На заправке парикмахерша Югетт, только что поссорившаяся с другом, переживает разрыв. К ней подходит незнакомец, который не прочь завязать разговор. А вдруг это тот самый маньяк? Действие перепрыгивает во времени, герои оказываются связаны друг с другом, а зрителю предстоит поломать голову чтобы понять, кто же на самом деле Фокусник, и в чём обвиняется знаменитая писательница?...



Качество: BDRip AVC Сравнение с исходником
Формат: MKV
Видео кодек: H.264
Аудио кодек: AC3
Видео: MPEG-4 AVC, 2461 Кбит/с, 1024х436, 24 кадра/с
Аудио 1: русский, AC3, 384 kbps, 6 ch, 48 kHz [профессиональный многоголосый]
Аудио 2: французский, AC3, 448 kbps, 6 ch, 48 kHz [оригинал]
Общее
Уникальный идентификатор : 243255675277161534323156964381823780183 (0xB70156C3304ADE3AA0BF44D6AAEAC557)
Полное имя : D:VideoЖелезнодорожный роман.2007.BDRip.AVC.mkv
Формат : Matroska
Версия формата : Version 4 / Version 2
Размер файла : 2,46 Гбайт
Продолжительность : 1 ч. 44 м.
Общий поток : 3360 Кбит/сек
Название фильма : BDRip -- STarankov
Дата кодирования : UTC 2015-06-24 12:20:19
Программа кодирования : mkvmerge v7.9.0 ('Birds') 64bit
Библиотека кодирования : libebml v1.3.1 + libmatroska v1.4.2
_STATISTICS_WRITING_APP : mkvmerge v7.9.0 ('Birds') 64bit
_STATISTICS_WRITING_DATE_UTC : 2015-06-24 12:20:19
_STATISTICS_TAGS : BPS DURATION NUMBER_OF_FRAMES NUMBER_OF_BYTES
DURATION : 01:44:51.584000000
NUMBER_OF_FRAMES : 196612
NUMBER_OF_BYTES : 352328704

Видео
Идентификатор : 1
Формат : AVC
Формат/Информация : Advanced Video Codec
Профиль формата : High@L4.1
Параметр CABAC формата : Да
Параметр ReFrames формата : 9 кадров
Идентификатор кодека : V_MPEG4/ISO/AVC
Продолжительность : 1 ч. 44 м.
Битрейт : 2461 Кбит/сек
Ширина : 1024 пикселя
Высота : 436 пикселей
Соотношение сторон : 2,35:1
Режим частоты кадров : Постоянный
Частота кадров : 24,000 кадра/сек
Цветовое пространство : YUV
Субдискретизация насыщенности : 4:2:0
Битовая глубина : 8 бит
Тип развёртки : Прогрессивная
Бит/(Пиксели*Кадры) : 0.230
Размер потока : 1,80 Гбайт (73%)
Библиотека кодирования : x264 core 146 r2538 121396c
Настройки программы : cabac=1 / ref=9 / deblock=1:-1:-1 / analyse=0x3:0x113 / me=umh / subme=10 / psy=1 / psy_rd=1.00:0.15 / mixed_ref=1 / me_range=32 / chroma_me=1 / trellis=2 / 8x8dct=1 / cqm=0 / deadzone=21,11 / fast_pskip=1 / chroma_qp_offset=-3 / threads=6 / lookahead_threads=1 / sliced_threads=0 / nr=0 / decimate=1 / interlaced=0 / bluray_compat=0 / constrained_intra=0 / bframes=10 / b_pyramid=2 / b_adapt=2 / b_bias=0 / direct=1 / weightb=1 / open_gop=0 / weightp=2 / keyint=230 / keyint_min=23 / scenecut=40 / intra_refresh=0 / rc_lookahead=40 / rc=crf / mbtree=0 / crf=19.0 / qcomp=0.60 / qpmin=0 / qpmax=69 / qpstep=4 / vbv_maxrate=40000 / vbv_bufsize=50000 / crf_max=0.0 / nal_hrd=none / filler=0 / ip_ratio=1.40 / pb_ratio=1.30 / aq=1:1.00
Язык : French
Default : Да
Forced : Нет
DURATION : 01:44:51.584000000
NUMBER_OF_FRAMES : 150998
NUMBER_OF_BYTES : 1986502062
_STATISTICS_WRITING_APP : mkvmerge v7.9.0 ('Birds') 64bit
_STATISTICS_WRITING_DATE_UTC : 2015-06-24 12:20:19
_STATISTICS_TAGS : BPS DURATION NUMBER_OF_FRAMES NUMBER_OF_BYTES

Аудио #1
Идентификатор : 2
Формат : AC-3
Формат/Информация : Audio Coding 3
Расширение режима : CM (complete main)
Параметр Endianness формата : Big
Идентификатор кодека : A_AC3
Продолжительность : 1 ч. 44 м.
Вид битрейта : Постоянный
Битрейт : 384 Кбит/сек
Каналы : 6 каналов
Расположение каналов : Front: L C R, Side: L R, LFE
Частота : 48,0 КГц
Битовая глубина : 16 бит
Метод сжатия : С потерями
Размер потока : 288 Мбайт (11%)
Заголовок : MVO
Язык : Russian
Default : Да
Forced : Нет

Аудио #2
Идентификатор : 3
Формат : AC-3
Формат/Информация : Audio Coding 3
Расширение режима : CM (complete main)
Параметр Endianness формата : Big
Идентификатор кодека : A_AC3
Продолжительность : 1 ч. 44 м.
Вид битрейта : Постоянный
Битрейт : 448 Кбит/сек
Каналы : 6 каналов
Расположение каналов : Front: L C R, Side: L R, LFE
Частота : 48,0 КГц
Битовая глубина : 16 бит
Метод сжатия : С потерями
Размер потока : 336 Мбайт (13%)
Заголовок : Original
Язык : French
Default : Нет
Forced : Нет
piratbit.org



Скачать Железнодорожный роман через торрент http://i69.fastpic.ru/big/2015/0624/42/c25ddbbd0fd19f66fd02c7918fad8042.jpg Скачать фильм Железнодорожный роман через торрент бесплантно в хорошем качестве Описание: Полиция допрашивает писательницу Жюдит Ралитцер, которую подозревают в убийстве. Но кто её жертва? Из тюрьмы сбегает серийный ... 5.5 10 2
Торрент: Зарегистрирован [2015-06-24 16:35] · скачан: 71 раз
Статус: √ проверено
Размер: 2.46 GB
Как cкачать? Как скачать Железнодорожный роман через торрент | qTorrent

% Раздел Тема Автор DL S | L
Фильмы [HD 720p, 1080p] (Хороший звук DUB, MVO) [ 3.83 GB ] Железнодорожный роман / Roman de gare [2007 BDRip 720p] MVO msltel Скачать
1 | 0
Фильмы [HD 720p, 1080p] (Хороший звук DUB, MVO) [ 8.86 GB ] Железнодорожный роман / Roman de gare [2007 BDRip1080p] MVO msltel Скачать
1 | 0

28-11-2019 20:33  

Отключить всю рекламу на сайте

    Дорогой пользователь! Огромная просьба, поблагодарите релизера, оцените раздачу и оставьте свои комментарий, если Вы скачали Железнодорожный роман через торрент бесплатно! Внесите свою лепту в развитие PiratBit!
    Комментировать посты могут только пользователи прошедшие не сложную регистрацию
    Показать сообщения:    

    Железнодорожный роман через торрент
    Скачать бесплатно Железнодорожный роман
    Железнодорожный роман скачать торрент
    Железнодорожный роман смотреть онлайн
    Cкачать фильм Железнодорожный роман бесплатно
    Железнодорожный роман скачать торрент в хорошем качестве
    Железнодорожный роман смотреть онлайн бесплатно в хорошем качестве


    Вы не можете начинать темы
    Вы не можете отвечать на сообщения
    Вы не можете редактировать свои сообщения
    Вы не можете удалять свои сообщения
    Вы не можете голосовать в опросах
    Вы не можете прикреплять файлы к сообщениям
    Вы можете скачивать файлы