Присоединяйтесь к нам в Telegram!, здесь всегда актуальный адрес сайта, оперативная поддержка и многое другое!!

>

5.9

iTunes

7.4

iTunes

9.4

1 сезон

1

7.4

2 сезон

7.2

iTunes

7.3

iTunes

13

6.1

iTunes

8.3

Пиратка

30

ULTIMATE

pack

9.9

Лицензия

ВАЖНО

ИГРА 18+

pack

7.3

RePack

MK11

7.7

RePack

jed

7.8

RePack

fifa19

8.5

RePack

RDR2

RePack

NEED FOR SPEED™ PAYBACK

5 сезон

9 сезон

Бесстыжие 9 сезон

Все сериалы

все сериалы на PB.wtf

RePack

FAR CRY 5

Anonymous, доброй ночи, мы катастрофически не успеваем собрать деньги на оплату серверов, помогите нам пожалуйста 5,10,15р., для нас важна любая помощь . В качестве благодарности мы отключим Вам всю рекламу на сайте (укажите свой ник в строку Ваше имя)!

×
  
Magnet ссылка

Охота за мертвецом / Prey for Death (Рене Перез ) [2015, вестерн, BDRip, VO] piratbit.org

Охота за мертвецом через торрент piratbit.org

Размер: 1.37 GB | Добавлен: 6 лет 5 мес. назад | Торрент скачан:145 раз
Смотреть онлайн Охота за мертвецом | Скачать    Ребята, помогите собрать деньги на оплату серверов!!!

25-06-2015 14:10 Охота за мертвецом Скачать торрент  


Охота за мертвецом / Prey for Death


ИНФОРМАЦИЯ:
Год выпуска: 2015
Страна: США
Жанр: вестерн
Продолжительность: 01:20:11
Перевод: Любительский (одноголосый) [Xixidok]
Режиссер: Рене Перез

В Ролях:


Коннор Триннир (Chamberlain), Robert Koroluck (Baron Emerson), Надия Ланфранкони (Maria), Jay Kwon (Kowloon), Лея Перес (Leia), Kaula Reed (Orphanage Lady), Хареф Топет (Bandit)

Описание:
Барон Эмерсон использует свое огромное богатство, чтобы путешествовать по миру и охотится. Он не охотиться на животных, он охотится на людей. Барон прибывает на американскую границу для поиска своей следующей добычи. Там он находит преступника, стрелка по имени Чемберлин, который находится в тюрьме и приговорен к повешиванию. Барон организует Чемберлину свободу, чтобы он смог охотится на него как на зверя в этой кровавой игре на выживание на Диком Западе.

  • Мировая премьера:6 марта 2015

    ТЕХ.ДАННЫЕ:
    Качество: BDRip
    Формат: AVI
    Видео кодек: XviD
    Аудио кодек: AC3
    Видео: XviD, 720x400 (16:9), 1888 kbps, 23,976 fps, 0,274 bpp
    Аудио: AC3 / 5.1 / 48 kHz / 448 kbps / 16 bit



    Код:

    General
    Complete name                            : D:\Торенты\Prey.for.Death.2015.xixidok.BDRip.ExKinoRay.avi
    Format                                   : AVI
    Format/Info                              : Audio Video Interleave
    File size                                : 1.37 GiB
    Duration                                 : 1h 20mn
    Overall bit rate                         : 2 442 Kbps
    Writing application                      : VirtualDubMod 1.5.10.2 (build 2540/release)
    Writing library                          : VirtualDubMod build 2540/release
    Copyright                                : ExKinoRay

    Video
    ID                                       : 0
    Format                                   : MPEG-4 Visual
    Format profile                           : Advanced Simple@L5
    Format settings, BVOP                    : 1
    Format settings, QPel                    : No
    Format settings, GMC                     : No warppoints
    Format settings, Matrix                  : Custom
    Codec ID                                 : XVID
    Codec ID/Hint                            : XviD
    Duration                                 : 1h 20mn
    Bit rate                                 : 1 889 Kbps
    Width                                    : 720 pixels
    Height                                   : 400 pixels
    Display aspect ratio                     : 16:9
    Frame rate                               : 23.976 fps
    Color space                              : YUV
    Chroma subsampling                       : 4:2:0
    Bit depth                                : 8 bits
    Scan type                                : Progressive
    Compression mode                         : Lossy
    Bits/(Pixel*Frame)                       : 0.274
    Stream size                              : 1.06 GiB (77%)
    Writing library                          : XviD 73

    Audio
    ID                                       : 1
    Format                                   : AC-3
    Format/Info                              : Audio Coding 3
    Mode extension                           : CM (complete main)
    Codec ID                                 : 2000
    Duration                                 : 1h 20mn
    Bit rate mode                            : Constant
    Bit rate                                 : 448 Kbps
    Channel(s)                               : 6 channels
    Channel positions                        : Front: L C R, Side: L R, LFE
    Sampling rate                            : 48.0 KHz
    Bit depth                                : 16 bits
    Compression mode                         : Lossy
    Stream size                              : 257 MiB (18%)
    Alignment                                : Split accross interleaves
    Title                                    : xixidok

    Скриншоты:


    © Оформление by Ворон
    piratbit.org



  • Скачать Охота за мертвецом через торрент https://pic1.kartinco.top/images/61/ordi9.jpg Скачать, смотреть онлайн Охота за мертвецом бесплантно в хорошем качестве Описание: Барон Эмерсон использует свое огромное богатство, чтобы путешествовать по миру и охотится. Он не охотиться на животных, он ... 10 10 7
    Торрент: Зарегистрирован [2015-06-25 14:10] · скачан: 145 раз
    Статус: √ проверено
    Размер: 1.37 GB
    Как cкачать? Как скачать Охота за мертвецом через торрент | UTorrent

    % Раздел Тема Автор DL S | L
    T Фильмы (Blu-ray, BD-Remux, HDDVD) [ 15.01 GB ] Охота за мертвецом / Prey for Death [2015 BD Remux VOx2] Ворон Скачать
    1 | 0
    Фильмы 2015 (Звук TS, Cam, VO, DVO) [ 1.56 GB ] Охота за мертвецом / Prey for Death [2015 BDRip-AVC Любительский [Xixidok] + ENG GEKADOL Скачать
    1 | 0

    28-11-2019 20:33  

    Отключить всю рекламу на сайте

      Дорогой пользователь! Огромная просьба, поблагодарите релизера, оцените раздачу и оставьте свои комментарий, если Вы скачали Охота за мертвецом через торрент бесплатно!
      Комментировать посты могут только пользователи прошедшие не сложную регистрацию
      Показать сообщения:    

      Охота за мертвецом через торрент
      Скачать бесплатно Охота за мертвецом
      Охота за мертвецом скачать торрент
      Охота за мертвецом смотреть онлайн
      Cкачать фильм Охота за мертвецом бесплатно
      Охота за мертвецом скачать торрент в хорошем качестве
      Охота за мертвецом смотреть онлайн бесплатно в хорошем качестве


      Вы не можете начинать темы
      Вы не можете отвечать на сообщения
      Вы не можете редактировать свои сообщения
      Вы не можете удалять свои сообщения
      Вы не можете голосовать в опросах
      Вы не можете прикреплять файлы к сообщениям
      Вы можете скачивать файлы