Присоединяйтесь к нам в Telegram!, здесь всегда актуальный адрес сайта, оперативная поддержка и многое другое!!

>

5.9

iTunes

7.4

iTunes

9.4

1 сезон

1

7.4

2 сезон

7.2

iTunes

7.3

1 сезон

13

6.1

iTunes

8.3

GOG

30

ULTIMATE

pack

9.9

Лицензия

ВАЖНО

ИГРА 18+

pack

7.3

RePack

MK11

7.7

RePack

jed

7.8

RePack

fifa19

8.5

RePack

RDR2

RePack

NEED FOR SPEED™ PAYBACK

5 сезон

9 сезон

Бесстыжие 9 сезон

Все сериалы

все сериалы на PB.wtf

RePack

FAR CRY 5

Anonymous, добрый день, мы катастрофически не успеваем собрать деньги на оплату серверов, помогите нам пожалуйста 5,10,15р., для нас важна любая помощь . В качестве благодарности мы отключим Вам всю рекламу на сайте (укажите свой ник в строку Ваше имя)!

×
  
Magnet ссылка

Номер семь / Седьмой / Boy 7 (Лауренс Блок ) [2015, фантастика, боевик, триллер, HDRip, Любительский (одноголосый) [Andi] piratbit.org

Номер семь через торрент piratbit.org

Размер: 1.36 GB | Добавлен: 6 лет 4 мес. назад | Торрент скачан:536 раз
Смотреть онлайн Номер семь | Скачать    Ребята, помогите собрать деньги на оплату серверов!!!

03-07-2015 17:32 Номер семь Скачать торрент  


Номер семь / Седьмой / Boy 7


ИНФОРМАЦИЯ:
Год выпуска: 2015
Страна: Нидерланды, Венгрия
Жанр: фантастика, боевик, триллер
Продолжительность: 01:27:45
Перевод: Любительский (одноголосый) [Andi], перевод [М. Васильев]
Режиссер: Лауренс Блок

В Ролях:


Маттис ван де Санде Бакхуйзен (Sam), Элла-Джун Генрард (Lara), Тиго Гернандт (Zero), Yannick Jozefzoon (Louis), Джуст Конинг (Boy 2), Халина Рейн (Marit), Рене Саутендейк (Vermunt), Менно Ван Бекум (De Geer), Ганс Дагелет (Sassen), Бо Шнайдер (Frank), Marike van Weelden (Moeder Sam), Aaron Easterbrooks (Policeman)

Описание:
В будущем государство контролирует жизнь каждого человека. Свободы личности больше не существует. Стоящий у власти диктатор приказывает собрать со всей страны талантливых молодых людей и отправить их на учебу в секретную академию, где из них сделают преданных слуг режима. В этой академии у студентов нет имен. Только номера...

  • Мировая премьера:19 февраля 2015

    ТЕХ.ДАННЫЕ:
    Качество: HDRip
    Формат: AVI
    Видео кодек: XviD
    Аудио кодек: AC3
    Видео: 720x384 (1.875), 1666 kbps, 25 fps, 0,266 bpp
    Аудио: AC3 / 2.0 / 48 kHz / 192 kbps / Russian
    Аудио2: AC3 / 2.0 / 48 kHz / 256 kbps / Dutch



    Код:

    General
    Complete name                            : D:\Торенты\Boy.7.2015.L1.DVDRip.avi
    Format                                   : AVI
    Format/Info                              : Audio Video Interleave
    File size                                : 1.30 GiB
    Duration                                 : 1h 27mn
    Overall bit rate                         : 2 121 Kbps

    Video
    ID                                       : 0
    Format                                   : MPEG-4 Visual
    Format profile                           : Advanced Simple@L5
    Format settings, BVOP                    : 1
    Format settings, QPel                    : No
    Format settings, GMC                     : No warppoints
    Format settings, Matrix                  : Default (MPEG)
    Codec ID                                 : DX50
    Codec ID/Hint                            : DivX 5
    Duration                                 : 1h 27mn
    Bit rate                                 : 1 837 Kbps
    Width                                    : 720 pixels
    Height                                   : 384 pixels
    Display aspect ratio                     : 1.875
    Frame rate                               : 25.000 fps
    Color space                              : YUV
    Chroma subsampling                       : 4:2:0
    Bit depth                                : 8 bits
    Scan type                                : Progressive
    Compression mode                         : Lossy
    Bits/(Pixel*Frame)                       : 0.266
    Stream size                              : 1.13 GiB (87%)
    Writing library                          : XviD 1.2.1 (UTC 2008-12-04)

    Audio
    ID                                       : 1
    Format                                   : AC-3
    Format/Info                              : Audio Coding 3
    Mode extension                           : CM (complete main)
    Codec ID                                 : 2000
    Duration                                 : 1h 27mn
    Bit rate mode                            : Constant
    Bit rate                                 : 192 Kbps
    Channel(s)                               : 2 channels
    Channel positions                        : Front: L R
    Sampling rate                            : 48.0 KHz
    Bit depth                                : 16 bits
    Compression mode                         : Lossy
    Stream size                              : 121 MiB (9%)
    Alignment                                : Split accross interleaves

    Скриншоты:


    © Оформление by Ворон
    piratbit.org



  • Скачать Номер семь через торрент https://pic1.kartinco.top/images/61/ordi9.jpg Скачать, смотреть онлайн Номер семь бесплантно в хорошем качестве Описание: В будущем государство контролирует жизнь каждого человека. Свободы личности больше не существует. Стоящий у власти диктатор ... 10 10 15
    Info! Золотая раздача, скачанное не засчитывается.
    Торрент: Зарегистрирован [2015-07-03 18:22] · скачан: 536 раз
    Статус: T временная
    Размер: 1.36 GB
    Как cкачать? Как скачать Номер семь через торрент | UTorrent

    % Раздел Тема Автор DL S | L
    T Фильмы 2015 (Звук TS, Cam, VO, DVO) [ 1.45 GB ] Номер семь / Седьмой / Boy 7 [2015 Нидерланды Венгрия HDRip-AVC от sokol_ok] VO sokol_ok Скачать
    2 | 0

    28-11-2019 20:33  

    Отключить всю рекламу на сайте

    04-07-2015 01:50 Номер семь Скачать торрент  

    На 3 скрине - Безруков)))piratbit.org



      Дорогой пользователь! Огромная просьба, поблагодарите релизера, оцените раздачу и оставьте свои комментарий, если Вы скачали Номер семь через торрент бесплатно!
      Комментировать посты могут только пользователи прошедшие не сложную регистрацию
      Показать сообщения:    

      Номер семь через торрент
      Скачать бесплатно Номер семь
      Номер семь скачать торрент
      Номер семь смотреть онлайн
      Cкачать фильм Номер семь бесплатно
      Номер семь скачать торрент в хорошем качестве
      Номер семь смотреть онлайн бесплатно в хорошем качестве


      Вы не можете начинать темы
      Вы не можете отвечать на сообщения
      Вы не можете редактировать свои сообщения
      Вы не можете удалять свои сообщения
      Вы не можете голосовать в опросах
      Вы не можете прикреплять файлы к сообщениям
      Вы можете скачивать файлы