2 сезон

iTunes

MVO

1

2 сезон

iTunes

iTunes

1 сезон

RePack

30

Новинка

ВАЖНО

ИГРА 18+

pack

RePack

MK11
pack

Легкие деньги

RePack

jed

RePack

fifa19

RePack

RDR2

RePack

NEED FOR SPEED™ PAYBACK

4 сезон

9 сезон

Бесстыжие 9 сезон

Все сериалы

все сериалы на PB.wtf

RePack

FAR CRY 5

Anonymous, добрый день, мы не успеваем собрать деньги на оплату серверов за декабрь и январь, помогите нам пожалуйста в это трудное время. В качестве благодарности мы отключим Вам всю рекламу на сайте (укажите свой ник в строку Ваше имя)!

×
  
Magnet ссылка

Мастера секса / Masters of Sex / Сезон: 3 / Серии 1-12 из 12 (Майкл Аптед / Michael Apted, Майкл Диннер / Michael Dinner, Дженнифер Гетцингер / Jennifer Getzinger) [2015, США, драма, HDTVRip, WEB-DLRip] MVO [BaibaKo] piratbit.org

Мастера секса через торрент piratbit.org

Качают: 1 [ 0 KB/s ]
Размер: 7.05 GB | Добавлен: 5 лет 3 мес. назад | Торрент скачан:68 раз
Скачать  

05-07-2015 02:39 Мастера секса Скачать торрент  

Мастера секса / Masters of Sex
«Пробуждая любопытство Америки»


  • Год выпуска: 2015
  • Страна: США
  • Жанр: драма
  • Продолжительность: 00:58:56 (Серия)
  • Перевод: Профессиональный многоголосый закадровый [BaibaKo]

  • Режиссер: Майкл Аптед / Michael Apted, Майкл Диннер / Michael Dinner, Дженнифер Гетцингер / Jennifer Getzinger
  • В ролях:

    Майкл Шин (Dr. William Masters), Лиззи Каплан (Virginia Johnson), Кэйтлин Фицджералд (Libby Masters), Тедди Сирс (Dr. Austin Langham), Аннали Эшфорд (Betty DiMello), Николас Д’Агосто (Dr. Ethan Haas), Джулианна Николсон (Dr. Lillian DePaul), Кайла Мэдисон (Tessa Johnson), Бо Бриджес (Barton Scully), Хелен Йорк (Jane Martin), Кевин Кристи (Lester Linden), Коул Сэнд (Henry Johnson)

  • Описание:
    Сериал Мастера секса является экранизацией книги Томаса Майера с претенциозным названием «Мастера секса: Жизнь и время Уильяма Мастерса и Вирджинии Джонсон, пары, которая учила Америку любить». Это история жизни людей, которые проводят постоянные исследования человеческой сексуальности и попробуют их на себе. Это сериал об отношениях между Уильямом (Майкл Шин) и Вирджинией (Лиззи Каплан), которые были первопроходцами в этой теме. Исследователи – сексологи решают выяснить, что в мире может доставить невероятное удовольствие, и что при этом происходит в головном мозге, при достижении этого самого удовольствия. Действие сериала происходит в Америке в 60-е годы прошлого столетия.
  • Рейтинг:



  • Качество: HDTVRip, WEB-DLRip
  • Формат: :AVI
  • Видео кодек: XviD
  • Аудио кодек: MP3
  • Видео: 999 Кбит/сек, 720*400 (16:9), в 23,976 кадра/сек, MPEG-4 Visual (XviD)
  • Аудио №1: Русский 192 Кбит/сек, 48,0 КГц, 2 канала, MPEG Audio (MP3)
  • Аудио №2: Английский 192 Кбит/сек, 48,0 КГц, 2 канала, MPEG Audio (MP3)
  • Релиз от: GEKADOL

    Код:

    Внимание! Раздача ведётся путём добавления новых серий; при каждом добавлении создаётся новый торрент. Чтобы начать докачку новой серии, пользователям необходимо сделать следующее:
    (1) остановить скачивание,
    (2) удалить старый торрент у себя из клиента (старые серии удалять не надо),
    (3) скачать новый торрент и запустить его у себя в клиенте вместо старого, при этом указать клиенту путь в старую папку куда и должно происходить скачивание новых серий.
    Ваш клиент при этом должен произвести хеширование (проверку) старой папки (если не производит сам - помогите ему сделать это), и будет докачивать только те серии которых у вас ещё нет. Старые серии при этом не удаляются, а продолжают раздаваться!
    Eсли вы уже удалили старые серии, то предотвратить повторную закачку старых серий можно, отжав галочку в соответствующих местах при запуске нового торрента. По возможности, желательно не удалять старые серии как можно дольше чтобы релизёр не столько продолжал раздавать старые серии, а смог сконцентрироваться на новых.


    Код:

    Общее
    Полное имя                               : F:\Masters.of.Sex.s03.HDTVRip.BaibaKo\Masters.of.Sex.s03e05.HDTVRip.XviD.Rus.Eng.BaibaKo.tv.avi
    Формат                                   : AVI
    Формат/Информация                        : Audio Video Interleave
    Размер файла                             : 588 Мбайт
    Продолжительность                        : 58 м.
    Общий поток                              : 1397 Кбит/сек
    Программа кодирования                    : VirtualDubMod 1.5.10.3 | www.virtualdub-fr.org || (build 2550/release)
    Библиотека кодирования                   : VirtualDubMod build 2550/release

    Видео
    Идентификатор                            : 0
    Формат                                   : MPEG-4 Visual
    Профиль формата                          : Advanced Simple@L5
    Параметр BVOP формата                    : 2
    Параметр QPel формата                    : Нет
    Параметр GMC формата                     : Без точки перехода
    Параметр матрицы формата                 : Default (H.263)
    Идентификатор кодека                     : XVID
    Идентификатор кодека/Подсказка           : XviD
    Продолжительность                        : 58 м.
    Битрейт                                  : 999 Кбит/сек
    Ширина                                   : 720 пикселей
    Высота                                   : 400 пикселей
    Соотношение сторон                       : 16:9
    Частота кадров                           : 23,976 кадра/сек
    Цветовое пространство                    : YUV
    Субдискретизация насыщенности            : 4:2:0
    Битовая глубина                          : 8 бит
    Тип развёртки                            : Прогрессивная
    Метод сжатия                             : С потерями
    Бит/(Пиксели*Кадры)                      : 0.145
    Размер потока                            : 421 Мбайт (72%)
    Библиотека кодирования                   : XviD 67

    Аудио #1
    Идентификатор                            : 1
    Формат                                   : MPEG Audio
    Версия формата                           : Version 1
    Профиль формата                          : Layer 3
    Режим                                    : Joint stereo
    Расширение режима                        : MS Stereo
    Идентификатор кодека                     : 55
    Идентификатор кодека/Подсказка           : MP3
    Продолжительность                        : 58 м.
    Вид битрейта                             : Постоянный
    Битрейт                                  : 192 Кбит/сек
    Каналы                                   : 2 канала
    Частота                                  : 48,0 КГц
    Метод сжатия                             : С потерями
    Размер потока                            : 80,8 Мбайт (14%)
    Выравнивание                             : Соединение по промежуткам
    Продолжительность промежутка             : 42  мс. (1,00 видеокадр)
    Время предзагрузки промежутка            : 504  мс.

    Аудио #2
    Идентификатор                            : 2
    Формат                                   : MPEG Audio
    Версия формата                           : Version 1
    Профиль формата                          : Layer 3
    Режим                                    : Joint stereo
    Идентификатор кодека                     : 55
    Идентификатор кодека/Подсказка           : MP3
    Продолжительность                        : 58 м.
    Вид битрейта                             : Постоянный
    Битрейт                                  : 192 Кбит/сек
    Каналы                                   : 2 канала
    Частота                                  : 48,0 КГц
    Метод сжатия                             : С потерями
    Размер потока                            : 80,8 Мбайт (14%)
    Выравнивание                             : Соединение по промежуткам
    Продолжительность промежутка             : 42  мс. (1,00 видеокадр)
    Время предзагрузки промежутка            : 504  мс.




    Скриншоты:
    скриншот   скриншот   скриншот   скриншот   скриншот  
    скриншот  

    Раздача ведётся путём добавления новых серий. Добавлена 12 серия (06.10.2015).Просьба перекачать торрент файл.

    piratbit.org



  • Скачать Мастера секса через торрент http://i5.imageban.ru/out/2015/07/05/3b1ada3904821268b979acb999abc8a5.jpg Скачать фильм Мастера секса через торрент бесплантно в хорошем качестве Описание: Сериал Мастера секса является экранизацией книги Томаса Майера с претенциозным названием «Мастера секса: Жизнь и время Уильяма ... 8.7 10 18
    Info! Золотая раздача, скачанное не засчитывается.
    Торрент: Зарегистрирован [2015-10-06 02:45] · скачан: 68 раз
    Статус: √ проверено
    Размер: 7.05 GB
    Как cкачать? Как скачать Мастера секса через торрент | UTorrent



    Последний раз редактировалось: GEKADOL (2015-10-06 02:44), всего редактировалось 12 раз(а)

    28-11-2019 20:33  

    Отключить всю рекламу на сайте


    05-07-2015 02:43 Мастера секса Скачать торрент  

    Ну вот и продолжение) piratbit.org



    05-07-2015 02:54 Мастера секса Скачать торрент  

    GEKADOL писал(а):

    Ну вот и продолжение)

    замечательно, и Очень оперативно) спасибоpiratbit.org



    05-07-2015 03:09 Мастера секса Скачать торрент  

    rstmanso писал(а):

    GEKADOL писал(а):

    Ну вот и продолжение)

    замечательно, и Очень оперативно) спасибо

    Вам спасибо за спасибо!)piratbit.org



    27-07-2015 08:36 Мастера секса Скачать торрент  

    как сериал интересный?!piratbit.org



      Дорогой пользователь! Огромная просьба, поблагодарите релизера, оцените раздачу и оставьте свои комментарий, если Вы скачали Мастера секса через торрент бесплатно! Внесите свою лепту в развитие PiratBit!
      Комментировать посты могут только пользователи прошедшие не сложную регистрацию
      Показать сообщения:    

      Мастера секса через торрент
      Скачать бесплатно Мастера секса
      Мастера секса скачать торрент
      Мастера секса смотреть онлайн
      Cкачать фильм Мастера секса бесплатно
      Мастера секса скачать торрент в хорошем качестве
      Мастера секса смотреть онлайн бесплатно в хорошем качестве


      Вы не можете начинать темы
      Вы не можете отвечать на сообщения
      Вы не можете редактировать свои сообщения
      Вы не можете удалять свои сообщения
      Вы не можете голосовать в опросах
      Вы не можете прикреплять файлы к сообщениям
      Вы можете скачивать файлы