Присоединяйтесь к нам в Telegram!, здесь всегда актуальный адрес сайта, оперативная поддержка и многое другое!!

>

5.9

iTunes

7.4

iTunes

9.4

1 сезон

1

7.4

2 сезон

7.2

iTunes

7.3

1 сезон

13

6.1

iTunes

8.3

Пиратка

30

ULTIMATE

pack

9.9

Лицензия

ВАЖНО

ИГРА 18+

pack

7.3

RePack

MK11

7.7

RePack

jed

7.8

RePack

fifa19

8.5

RePack

RDR2

RePack

NEED FOR SPEED™ PAYBACK

5 сезон

9 сезон

Бесстыжие 9 сезон

Все сериалы

все сериалы на PB.wtf

RePack

FAR CRY 5

Anonymous, доброй ночи, мы катастрофически не успеваем собрать деньги на оплату серверов, помогите нам пожалуйста 5,10,15р., для нас важна любая помощь . В качестве благодарности мы отключим Вам всю рекламу на сайте (укажите свой ник в строку Ваше имя)!

×
  
Magnet ссылка

Наёмник: Отпущение грехов / Absolution (Киони Ваксман / Keoni Waxman) [2015, США, Румыния, боевик, триллер, криминал, HDRip-AVC, Любительский (одноголосый) [Xixidok] + ENG + SUB piratbit.org

Наёмник: Отпущение грехов через торрент piratbit.org

Размер: 1.89 GB | Добавлен: 6 лет 4 мес. назад | Торрент скачан:161 раз
Смотреть онлайн Наёмник: Отпущение грехов | Скачать    Ребята, помогите собрать деньги на оплату серверов!!!

06-07-2015 04:42 Наёмник: Отпущение грехов Скачать торрент  

Наёмник: Отпущение грехов / Absolution
«У него есть Кодекс, он никогда его не нарушал»


  • Год выпуска: 2015
  • Страна: США, Румыния
  • Жанр: боевик, триллер, криминал, приключения
  • Продолжительность: 01:31:27
  • Перевод: Любительский (одноголосый) [Xixidok]
  • Субтитры: русские (Forced), английские
  • Режиссер: Киони Ваксман / Keoni Waxman
  • В ролях:

    Стивен Сигал (John Alexander), Байрон Манн (Chi), Ховард Делл (Van Horn), Адина Стетцу (Nadia), Винни Джонс (The Boss), Джош Барнетт (Colt), Мария Бата (Diana), Dominte Cosmin (Sergei), Серджиу Костаке (The Afghani), Джордж Ремис (Victor), Сабина Брандусе (John's Wife), Lavinia Geambasu (Working Girl)

  • Описание:
    Когда на пути наёмного убийцы попадается девушка, убегающая от рук опасного босса мафии с мощными политическими связями и управляющий бизнесом по торговле людьми, он разрывается между её защитой и верностью государству, которое его наняло.
  • Рейтинг:



  • Качество: HDRip-AVC
  • Формат: :MKV
  • Видео кодек: AVC
  • Аудио кодек: AC3
  • Видео: 1024x576 (16:9), 2055 kbps, 25 fps, 0,139 bpp
  • Аудио №1: русский / 5.1 / 48 kHz / 448 kbps / 16 bit |[Xixidok]|
  • Аудио №2: английский / 5.1 / 48 kHz / 448 kbps / 16 bit
  • Релиз от: GEKADOL

    Код:

    General
    Unique ID                                : 187036684100898693255918285898745136781 (0x8CB5F47EDEB4836BA73E6B14A2B0468D)
    Complete name                            : D:\Фильмы\Mercenary.Absolution.2015.xixidok.HDRip.AVC.ExKinoRay.mkv
    Format                                   : Matroska
    Format version                           : Version 4 / Version 2
    File size                                : 1.89 GiB
    Duration                                 : 1h 31mn
    Overall bit rate                         : 2 952 Kbps
    Movie name                               : Mercenary: Absolution 2015 from ExKinoRay
    Encoded date                             : UTC 2015-07-06 02:05:30
    Writing application                      : mkvmerge v6.6.0 ('The Edge Of The In Between') built on Dec  1 2013 17:55:00
    Writing library                          : libebml v1.3.0 + libmatroska v1.4.1

    Video
    ID                                       : 1
    Format                                   : AVC
    Format/Info                              : Advanced Video Codec
    Format profile                           : High@L4.1
    Format settings, CABAC                   : Yes
    Format settings, ReFrames                : 12 frames
    Codec ID                                 : V_MPEG4/ISO/AVC
    Duration                                 : 1h 31mn
    Bit rate                                 : 2 055 Kbps
    Width                                    : 1 024 pixels
    Height                                   : 576 pixels
    Display aspect ratio                     : 16:9
    Frame rate                               : 25.000 fps
    Color space                              : YUV
    Chroma subsampling                       : 4:2:0
    Bit depth                                : 8 bits
    Scan type                                : Progressive
    Bits/(Pixel*Frame)                       : 0.139
    Stream size                              : 1.28 GiB (68%)
    Title                                    : Enigma
    Writing library                          : x264 core 133 r2334 a3ac64b
    Encoding settings                        : cabac=1 / ref=12 / deblock=1:-3:-3 / analyse=0x3:0x113 / me=umh / subme=10 / psy=1 / psy_rd=1.05:0.15 / mixed_ref=1 / me_range=32 / chroma_me=1 / trellis=2 / 8x8dct=1 / cqm=0 / deadzone=21,11 / fast_pskip=0 / chroma_qp_offset=-3 / threads=12 / lookahead_threads=2 / sliced_threads=0 / nr=0 / decimate=0 / interlaced=0 / bluray_compat=0 / constrained_intra=0 / bframes=9 / b_pyramid=2 / b_adapt=2 / b_bias=0 / direct=3 / weightb=1 / open_gop=0 / weightp=2 / keyint=250 / keyint_min=25 / scenecut=40 / intra_refresh=0 / rc_lookahead=40 / rc=2pass / mbtree=0 / bitrate=2055 / ratetol=1.0 / qcomp=0.65 / qpmin=0 / qpmax=51 / qpstep=4 / cplxblur=20.0 / qblur=0.5 / vbv_maxrate=50000 / vbv_bufsize=62500 / nal_hrd=none / ip_ratio=1.40 / pb_ratio=1.30 / aq=1:1.00
    Language                                 : English
    Default                                  : Yes
    Forced                                   : No
    Color primaries                          : BT.709-5, BT.1361, IEC 61966-2-4, SMPTE RP177
    Transfer characteristics                 : BT.709-5, BT.1361
    Matrix coefficients                      : BT.709-5, BT.1361, IEC 61966-2-4 709, SMPTE RP177

    Audio #1
    ID                                       : 2
    Format                                   : AC-3
    Format/Info                              : Audio Coding 3
    Mode extension                           : CM (complete main)
    Codec ID                                 : A_AC3
    Duration                                 : 1h 31mn
    Bit rate mode                            : Constant
    Bit rate                                 : 448 Kbps
    Channel(s)                               : 6 channels
    Channel positions                        : Front: L C R, Side: L R, LFE
    Sampling rate                            : 48.0 KHz
    Bit depth                                : 16 bits
    Compression mode                         : Lossy
    Stream size                              : 293 MiB (15%)
    Title                                    : xixidok
    Language                                 : Russian
    Default                                  : Yes
    Forced                                   : No

    Audio #2
    ID                                       : 3
    Format                                   : AC-3
    Format/Info                              : Audio Coding 3
    Mode extension                           : CM (complete main)
    Codec ID                                 : A_AC3
    Duration                                 : 1h 31mn
    Bit rate mode                            : Constant
    Bit rate                                 : 448 Kbps
    Channel(s)                               : 6 channels
    Channel positions                        : Front: L C R, Side: L R, LFE
    Sampling rate                            : 48.0 KHz
    Bit depth                                : 16 bits
    Compression mode                         : Lossy
    Stream size                              : 293 MiB (15%)
    Language                                 : English
    Default                                  : No
    Forced                                   : No

    Text #1
    ID                                       : 4
    Format                                   : UTF-8
    Codec ID                                 : S_TEXT/UTF8
    Codec ID/Info                            : UTF-8 Plain Text
    Title                                    : Forced
    Language                                 : Russian
    Default                                  : Yes
    Forced                                   : No

    Text #2
    ID                                       : 5
    Format                                   : UTF-8
    Codec ID                                 : S_TEXT/UTF8
    Codec ID/Info                            : UTF-8 Plain Text
    Language                                 : English
    Default                                  : No
    Forced                                   : No

    Menu
    00:00:00.000                             : en:00:00:00.000
    00:04:10.127                             : en:00:04:10.127
    00:09:44.312                             : en:00:09:44.312
    00:17:37.077                             : en:00:17:37.077
    00:27:28.443                             : en:00:27:28.443
    00:37:51.868                             : en:00:37:51.868
    00:50:02.966                             : en:00:50:02.966
    01:00:26.112                             : en:01:00:26.112
    01:08:02.239                             : en:01:08:02.239
    01:14:37.554                             : en:01:14:37.554
    01:21:15.183                             : en:01:21:15.183
    01:28:28.466                             : en:01:28:28.466




    Скриншоты:
    скриншот   скриншот   скриншот   скриншот   скриншот  
    скриншот  


    piratbit.org



  • Скачать Наёмник: Отпущение грехов через торрент https://pic1.kartinco.top/images/10/jv1dp.jpg Скачать, смотреть онлайн Наёмник: Отпущение грехов бесплантно в хорошем качестве Описание: Когда на пути наёмного убийцы попадается девушка, убегающая от рук опасного босса мафии с мощными политическими связями и ... 8.8 10 11
    Торрент: Зарегистрирован [2015-07-06 04:50] · скачан: 161 раз
    Статус: T временная
    Размер: 1.89 GB
    Как cкачать? Как скачать Наёмник: Отпущение грехов через торрент | UTorrent

    28-11-2019 20:33  

    Отключить всю рекламу на сайте

    06-07-2015 06:52 Наёмник: Отпущение грехов Скачать торрент  

    ща глянемpiratbit.org



    09-07-2015 14:53 Наёмник: Отпущение грехов Скачать торрент  

    Сочуствую. Да еще с такой озвучкой...piratbit.org



      Дорогой пользователь! Огромная просьба, поблагодарите релизера, оцените раздачу и оставьте свои комментарий, если Вы скачали Наёмник: Отпущение грехов через торрент бесплатно!
      Комментировать посты могут только пользователи прошедшие не сложную регистрацию
      Показать сообщения:    

      Наёмник: Отпущение грехов через торрент
      Скачать бесплатно Наёмник: Отпущение грехов
      Наёмник: Отпущение грехов скачать торрент
      Наёмник: Отпущение грехов смотреть онлайн
      Cкачать фильм Наёмник: Отпущение грехов бесплатно
      Наёмник: Отпущение грехов скачать торрент в хорошем качестве
      Наёмник: Отпущение грехов смотреть онлайн бесплатно в хорошем качестве


      Вы не можете начинать темы
      Вы не можете отвечать на сообщения
      Вы не можете редактировать свои сообщения
      Вы не можете удалять свои сообщения
      Вы не можете голосовать в опросах
      Вы не можете прикреплять файлы к сообщениям
      Вы можете скачивать файлы