Доктор Стрэндж

Лицензия

Добыча

Дубляж

Уэнсдэй

1 сезон

Тор

Дубляж

В эфире

Дубляж

Там, где раки поют

MVO

Властелин колец

1 сезон

Deluxe

pack

Рекомендуем

30

Пиратка

ВАЖНО

ВАЖНО

Ghostwire

Пиратка

jed

RePack

nioh2

RePack

RDR2

RePack

NEED FOR SPEED™ PAYBACK

RePack

скачать торрент

Кинопоиск HD

Острые козырьки 6 сезон

6 сезон

FAR CRY 6

RePack

скачать торрент

Лицензия

скачать торрент

MVO

1

1 сезон

скачать торрент

1 сезон

скачать торрент

Лицензия

  

Наёмник: Отпущение грехов / Absolution (Киони Ваксман ) [2015, боевик, триллер, криминал, BDRip 720p] VO

Наёмник: Отпущение грехов через торрент piratbit.org

Размер: 3.96 GB | Добавлен: 7 лет 4 мес. назад | Торрент скачан:104 раза
Смотреть онлайн | Скачать   

07-07-2015 18:43 Наёмник: Отпущение грехов Скачать торрент  

Производство: США, Румыния / Actionhouse Pictures, Castel Film Romania

Жанр: боевик, триллер, криминал, приключения

Продолжительность: 01:29:57

Перевод: любительский (одноголосый закадровый)

Озвучка / Автор перевода: Хихикающий доктор по переводу Enigma

Язык субтитров: русский (форсированные), английский

Вид субтитров: вшитые, отключаемые

Режиссер: Киони Ваксман

Продюсер: Агустин, Бинь Дань, Филлип Б. Голдфайн

Актеры: Стивен Сигал, Байрон Манн, Ховард Делл, Адина Стетцу, Винни Джонс, Джош Барнетт, Мария Бата, Доминте Космин, Серджиу Костаке, Джордж Ремис

Описание:

В роли наёмного убийцы выступает легенда боевого кино – Стивен Сигал. На этот раз он работает не в одиночку, а с напарником. Впереди героев ждёт очередное задание от государства, выполнить которое кажется совсем простым делом. Вламываясь в особняк наркодиллера, убийцы убирают его охрану и самого негодяя. После успешно проведённого задания, герой Сигала отправляется отдохнуть в бар и пропустить стаканчик, второй. Относительно спокойное и умеренное времяпровождение мужчины нарушает появление симпатичной девушки. Она просит о помощи в попытках вырваться из лап преступников. Как настоящий джентльмен, главный герой не может остаться в стороне, и практически сразу приходит бедняжке на помощь, при этом уложив в баре, около десятка человек. На этом спасение таинственной незнакомки не заканчивается. Персонаж Стивена перешёл дорогу крупному мафиози. Именно от него бежит хрупкая молодая особа. Включая политические связи, и гангстерские рычаги, преступный король хочет вернуть себе беглянку. Но для этого ему нужно добраться к наёмному убийце. Мужчина не останется в долгу и сам начнёт охоту за крупным мафиози...

Семпл

Качество: BDRip (720p)
Формат: MKV
Видео кодек: AVC
Аудио кодек: АС3
Видео: MPEG-4 AVC/H.264, 1280x720 (16:9), 5 305 kbps, 25.000 fps, 0.230 b/px
Аудио # 1: АС3, 6 ch, 448 kbps, 48 000 Hz - VO - Хихи.Док
Аудио # 2: АС3, 6 ch, 448 kbps, 48 000 Hz - Original - ENG
Общее
Уникальный идентификатор : 203148956401781074218517622710647226396 (0x98D510DA44DD94F5A9BF11E65E35801C)
Полное имя : D:\Торенты\Absolution.2015.L1.Eng.BluRay.720p.mkv
Формат : Matroska
Версия формата : Version 4 / Version 2
Размер файла : 3,96 Гбайт
Продолжительность : 1 ч. 31 м.
Общий поток : 6201 Кбит/сек
Название фильма : Mercenary: Absolution 2015 from ExKinoRay
Дата кодирования : UTC 2015-07-06 05:51:38
Программа кодирования : mkvmerge v7.8.0 ('River Man') 64bit built on Mar 27 2015 16:31:37
Библиотека кодирования : libebml v1.3.1 + libmatroska v1.4.2

Видео
Идентификатор : 1
Формат : AVC
Формат/Информация : Advanced Video Codec
Профиль формата : High@L4.1
Параметр CABAC формата : Да
Параметр ReFrames формата : 5 кадров
Идентификатор кодека : V_MPEG4/ISO/AVC
Продолжительность : 1 ч. 31 м.
Битрейт : 5305 Кбит/сек
Ширина : 1280 пикселей
Высота : 720 пикселей
Соотношение сторон : 16:9
Режим частоты кадров : Постоянный
Частота кадров : 25,000 кадров/сек
Цветовое пространство : YUV
Субдискретизация насыщенности : 4:2:0
Битовая глубина : 8 бит
Тип развёртки : Прогрессивная
Бит/(Пиксели*Кадры) : 0.230
Размер потока : 3,31 Гбайт (84%)
Библиотека кодирования : x264 core 146 r2538 121396c
Настройки программы : cabac=1 / ref=5 / deblock=1:0:0 / analyse=0x3:0x133 / me=umh / subme=8 / psy=1 / psy_rd=1.00:0.00 / mixed_ref=1 / me_range=16 / chroma_me=1 / trellis=1 / 8x8dct=1 / cqm=0 / deadzone=21,11 / fast_pskip=0 / chroma_qp_offset=-2 / threads=12 / lookahead_threads=2 / sliced_threads=0 / nr=0 / decimate=1 / interlaced=0 / bluray_compat=0 / constrained_intra=0 / bframes=3 / b_pyramid=2 / b_adapt=1 / b_bias=0 / direct=1 / weightb=1 / open_gop=0 / weightp=2 / keyint=250 / keyint_min=25 / scenecut=40 / intra_refresh=0 / rc_lookahead=40 / rc=2pass / mbtree=1 / bitrate=5305 / ratetol=1.0 / qcomp=0.60 / qpmin=0 / qpmax=69 / qpstep=4 / cplxblur=20.0 / qblur=0.5 / ip_ratio=1.40 / aq=1:1.00
Язык : English
Default : Да
Forced : Нет

Аудио #1
Идентификатор : 2
Формат : AC-3
Формат/Информация : Audio Coding 3
Расширение режима : CM (complete main)
Параметр Endianness формата : Big
Идентификатор кодека : A_AC3
Продолжительность : 1 ч. 31 м.
Вид битрейта : Постоянный
Битрейт : 448 Кбит/сек
Каналы : 6 каналов
Расположение каналов : Front: L C R, Side: L R, LFE
Частота : 48,0 КГц
Битовая глубина : 16 бит
Метод сжатия : С потерями
Размер потока : 293 Мбайт (7%)
Заголовок : xixidok
Язык : Russian
Default : Да
Forced : Нет

Аудио #2
Идентификатор : 3
Формат : AC-3
Формат/Информация : Audio Coding 3
Расширение режима : CM (complete main)
Параметр Endianness формата : Big
Идентификатор кодека : A_AC3
Продолжительность : 1 ч. 31 м.
Вид битрейта : Постоянный
Битрейт : 448 Кбит/сек
Каналы : 6 каналов
Расположение каналов : Front: L C R, Side: L R, LFE
Частота : 48,0 КГц
Битовая глубина : 16 бит
Метод сжатия : С потерями
Размер потока : 293 Мбайт (7%)
Язык : English
Default : Нет
Forced : Нет

Текст #1
Идентификатор : 4
Формат : UTF-8
Идентификатор кодека : S_TEXT/UTF8
Идентификатор кодека/Информация : UTF-8 Plain Text
Заголовок : Forced
Язык : Russian
Default : Да
Forced : Нет

Текст #2
Идентификатор : 5
Формат : UTF-8
Идентификатор кодека : S_TEXT/UTF8
Идентификатор кодека/Информация : UTF-8 Plain Text
Язык : English
Default : Нет
Forced : Нет

Меню
00:00:00.000 : en:00:00:00.000
00:04:10.127 : en:00:04:10.127
00:09:44.312 : en:00:09:44.312
00:17:37.077 : en:00:17:37.077
00:27:28.443 : en:00:27:28.443
00:37:51.868 : en:00:37:51.868
00:50:02.966 : en:00:50:02.966
01:00:26.112 : en:01:00:26.112
01:08:02.239 : en:01:08:02.239
01:14:37.554 : en:01:14:37.554
01:21:15.183 : en:01:21:15.183
01:28:28.466 : en:01:28:28.466



Скачать Наёмник: Отпущение грехов через торрент http://s015.radikal.ru/i333/1507/85/dd65e3af7e22.jpg Скачать, смотреть онлайн Наёмник: Отпущение грехов бесплантно в хорошем качестве Описание: В роли наёмного убийцы выступает легенда боевого кино – Стивен Сигал. На этот раз он работает не в одиночку, а с напарником. ... 8.7 10 7
Торрент: Зарегистрирован [2015-07-07 18:43] · скачан: 104 раз
Статус: T временная
Размер: 3.96 GB
Как cкачать? Как скачать Наёмник: Отпущение грехов через торрент | UTorrent

% Раздел Тема Автор DL S | L
T Фильмы (Blu-ray, BD-Remux, HDDVD) [ 18.99 GB ] Наёмник: Отпущение грехов / Absolution | | BDRemux 1080i от NovaLan Ворон Скачать
1 | 0

28-11-2019 20:33  


Отключить вcю реклaмy на сайте, в т.ч. и в плеере онлайн просмотра!

    Дорогой пользователь! Огромная просьба, поблагодарите релизера, оцените раздачу и оставьте свои комментарий, если Вы скачали Наёмник: Отпущение грехов через торрент бесплатно!!
    Комментировать посты могут только пользователи прошедшие не сложную регистрацию
    Показать сообщения:    


    Наёмник: Отпущение грехов через торрент
    Скачать бесплатно Наёмник: Отпущение грехов
    Наёмник: Отпущение грехов скачать торрент
    Наёмник: Отпущение грехов смотреть онлайн
    Cкачать фильм Наёмник: Отпущение грехов бесплатно
    Наёмник: Отпущение грехов скачать торрент в хорошем качестве
    Наёмник: Отпущение грехов смотреть онлайн бесплатно в хорошем качестве
    Вы не можете начинать темы
    Вы не можете отвечать на сообщения
    Вы не можете редактировать свои сообщения
    Вы не можете удалять свои сообщения
    Вы не можете голосовать в опросах
    Вы не можете прикреплять файлы к сообщениям
    Вы можете скачивать файлы
    Наёмник: Отпущение грехов / Absolution [2015, боевик, триллер, криминал, BDRip 720p] VO смотреть онлайн, скачать торрент picoco.icu