Присоединяйтесь к нам в Telegram!, здесь всегда актуальный адрес сайта, оперативная поддержка и многое другое!!

>

5.9

iTunes

7.4

iTunes

9.4

1 сезон

1

7.4

2 сезон

7.2

iTunes

7.3

1 сезон

13

6.1

iTunes

8.3

GOG

30

ULTIMATE

pack

9.9

Лицензия

ВАЖНО

ИГРА 18+

pack

7.3

RePack

MK11

7.7

RePack

jed

7.8

RePack

fifa19

8.5

RePack

RDR2

RePack

NEED FOR SPEED™ PAYBACK

5 сезон

9 сезон

Бесстыжие 9 сезон

Все сериалы

все сериалы на PB.wtf

RePack

FAR CRY 5

Anonymous, добрый день, мы катастрофически не успеваем собрать деньги на оплату серверов, помогите нам пожалуйста 5,10,15р., для нас важна любая помощь . В качестве благодарности мы отключим Вам всю рекламу на сайте (укажите свой ник в строку Ваше имя)!

×
  
Magnet ссылка

Резня зомби 2: Рейх мёртвых / Zombie Massacre 2: Reich of the Dead (Люка Бони / Luca Boni, Марко Ристори / Marco Ristori) [2015, Канада, Италия, ужасы, военный, DVDRip) VO [Васька Куролесов] + ENG piratbit.org

Резня зомби 2: Рейх мёртвых через торрент piratbit.org

Размер: 1.45 GB | Добавлен: 6 лет 4 мес. назад | Торрент скачан:98 раз
Смотреть онлайн Резня зомби 2: Рейх мёртвых | Скачать    Ребята, помогите собрать деньги на оплату серверов!!!

08-07-2015 06:08 Резня зомби 2: Рейх мёртвых Скачать торрент  

Резня зомби 2: Рейх мёртвых / Zombie Massacre 2: Reich of the Dead


  • Год выпуска: 2015
  • Страна: Канада, Италия
  • Жанр: ужасы, военный
  • Продолжительность: 01:20:35
  • Перевод: Любительский (одноголосый) [Васька Куролесов]

  • Режиссер: Люка Бони / Luca Boni, Марко Ристори / Marco Ristori
  • В ролях:

    Эндрю Миллс (Will Adams), Дэн ван Хузен (Doktor Mengele), Айк Стилстра (Sergeant Calhoun), Элли МакКлелланд (Matt), Майкл Сигал (Charlie), Lucy Drive (Erin), Дэвид Уайт (Patient Zero), Эудженио Казини (Zombie), Giuseppe Nitti (Zombie), Дезире Джорджетти (Zombie), Маттео Марианелли (Zombie), Давид Редо (Zombie)

  • Описание:
    Вторая Мировая война. История о группе американских солдат, воюющих против орды зомби, созданных нацистами из узников лагерей ... У них только одна ночь, чтобы спасти свою собственную жизнь, но враг все сильнее и сильнее ...
  • Рейтинг:



  • Качество: DVDRip
  • Формат: :AVI
  • Видео кодек: XviD
  • Аудио кодек: AC3
  • Видео: 720x304 (2.35:1), 1982 kbps, 25 fps, 0,362 bpp
  • Аудио №1: Русский 2.0 / 48 kHz / 192 kbps / 16 bit
  • Аудио №2: Английский 2.0 / 48 kHz / 384 kbps / 16 bit
  • Релиз от: GEKADOL

    Код:

    General
    Complete name                            : D:\Фильмы\zombie.massacre.2.reich.of.the.dead.2015.dvdrip.avi
    Format                                   : AVI
    Format/Info                              : Audio Video Interleave
    File size                                : 1.45 GiB
    Duration                                 : 1h 20mn
    Overall bit rate                         : 2 573 Kbps
    Writing application                      : VirtualDubMod 1.5.10.2 (build 2540/release)
    Writing library                          : VirtualDubMod build 2540/release

    Video
    ID                                       : 0
    Format                                   : MPEG-4 Visual
    Format profile                           : Advanced Simple@L5
    Format settings, BVOP                    : 2
    Format settings, QPel                    : No
    Format settings, GMC                     : No warppoints
    Format settings, Matrix                  : Default (MPEG)
    Muxing mode                              : Packed bitstream
    Codec ID                                 : XVID
    Codec ID/Hint                            : XviD
    Duration                                 : 1h 20mn
    Bit rate                                 : 1 982 Kbps
    Width                                    : 720 pixels
    Height                                   : 304 pixels
    Display aspect ratio                     : 2.35:1
    Frame rate                               : 25.000 fps
    Color space                              : YUV
    Chroma subsampling                       : 4:2:0
    Bit depth                                : 8 bits
    Scan type                                : Progressive
    Compression mode                         : Lossy
    Bits/(Pixel*Frame)                       : 0.362
    Stream size                              : 1.12 GiB (77%)
    Writing library                          : XviD 64

    Audio #1
    ID                                       : 1
    Format                                   : AC-3
    Format/Info                              : Audio Coding 3
    Mode extension                           : CM (complete main)
    Codec ID                                 : 2000
    Duration                                 : 1h 20mn
    Bit rate mode                            : Constant
    Bit rate                                 : 192 Kbps
    Channel(s)                               : 2 channels
    Channel positions                        : Front: L R
    Sampling rate                            : 48.0 KHz
    Bit depth                                : 16 bits
    Compression mode                         : Lossy
    Stream size                              : 111 MiB (7%)
    Alignment                                : Split accross interleaves
    Interleave, duration                     : 40 ms (1.00 video frame)
    Interleave, preload duration             : 500 ms

    Audio #2
    ID                                       : 2
    Format                                   : AC-3
    Format/Info                              : Audio Coding 3
    Mode extension                           : CM (complete main)
    Codec ID                                 : 2000
    Duration                                 : 1h 20mn
    Bit rate mode                            : Constant
    Bit rate                                 : 384 Kbps
    Channel(s)                               : 2 channels
    Channel positions                        : Front: L R
    Sampling rate                            : 48.0 KHz
    Bit depth                                : 16 bits
    Compression mode                         : Lossy
    Stream size                              : 221 MiB (15%)
    Alignment                                : Split accross interleaves
    Interleave, duration                     : 40 ms (1.00 video frame)
    Interleave, preload duration             : 500 ms




    Скриншоты:
    скриншот   скриншот   скриншот   скриншот   скриншот  
    скриншот  


    piratbit.org



  • Скачать Резня зомби 2: Рейх мёртвых через торрент http://i5.imageban.ru/out/2015/07/08/5d2f82a2de0389eb9d04634f1f72bfe8.jpg Скачать, смотреть онлайн Резня зомби 2: Рейх мёртвых бесплантно в хорошем качестве Описание: Вторая Мировая война. История о группе американских солдат, воюющих против орды зомби, созданных нацистами из узников лагерей ... ... 5.3 10 3
    Торрент: Зарегистрирован [2015-07-08 06:08] · скачан: 98 раз
    Статус: T временная
    Размер: 1.45 GB
    Как cкачать? Как скачать Резня зомби 2: Рейх мёртвых через торрент | UTorrent

    28-11-2019 20:33  

    Отключить всю рекламу на сайте

    08-07-2015 07:58 Резня зомби 2: Рейх мёртвых Скачать торрент  

    судя по названию говно полнейшее)))piratbit.org



      Дорогой пользователь! Огромная просьба, поблагодарите релизера, оцените раздачу и оставьте свои комментарий, если Вы скачали Резня зомби 2: Рейх мёртвых через торрент бесплатно!
      Комментировать посты могут только пользователи прошедшие не сложную регистрацию
      Показать сообщения:    

      Резня зомби 2: Рейх мёртвых через торрент
      Скачать бесплатно Резня зомби 2: Рейх мёртвых
      Резня зомби 2: Рейх мёртвых скачать торрент
      Резня зомби 2: Рейх мёртвых смотреть онлайн
      Cкачать фильм Резня зомби 2: Рейх мёртвых бесплатно
      Резня зомби 2: Рейх мёртвых скачать торрент в хорошем качестве
      Резня зомби 2: Рейх мёртвых смотреть онлайн бесплатно в хорошем качестве


      Вы не можете начинать темы
      Вы не можете отвечать на сообщения
      Вы не можете редактировать свои сообщения
      Вы не можете удалять свои сообщения
      Вы не можете голосовать в опросах
      Вы не можете прикреплять файлы к сообщениям
      Вы можете скачивать файлы