Ссылка на приватное зеркало нашего сайта всего за 1$. Внимание количество ограничено!!!

2 сезон

iTunes

iTunes

1

iTunes

iTunes

iTunes

WEBRip

iTunes

30
pack

Новость дня

ВАЖНО

!!Акция!!

Alien_RageХит недели

RePack

Horizon Zero Dawn

ИГРА 18+

pack

RePack

jed

!!Акция!!

Alien_Rage

RePack

fifa19

RePack

Assassins Creed: Odyssey

RePack

NEED FOR SPEED™ PAYBACK

4 сезон

9 сезон

Бесстыжие 9 сезон

Все сериалы

все сериалы на PB.wtf

RePack

FAR CRY 5
  

Преследователь / Chugyeogja (Хон Чжин На) [2008, триллер, BDRip AVC by msltel] MVO, DVO, AVO piratbit.org

Преследователь через торрент piratbit.org

Размер: 3.49 GB | Добавлен: 5 лет 2 мес. назад | Торрент скачан:95 раз
Скачать  

08-07-2015 10:07 Преследователь Скачать торрент  


Название: Преследователь
Оригинальное название: Chugyeogja
Год выпуска: 2008
Страна: Южная Корея
Жанр: триллер
Продолжительность: 02:04:55
Перевод: профессиональный многоголосый, профессиональный двухголосый, авторский

Режиссёр: Хон Чжин На

В ролях: Юн Сок Ким, Чон У Ха, Ён Хи Со, Хё Чжу Пак, Ин Ги Чон, Дук Чжэ Чжо, Ю Чжон Ким, Бон Вон Ко, Юн Сун Ким, Хе Сун Сон, Чон У Чхве, У Чон О, Чжин У Пак, Сан Хе Ли, Чжэ Хон Чон, Дон Гю Чон

Описание: Раньше Чун Хо служил в элитном подразделении полиции Сеула. Теперь он — обыкновенный сутенёр. Но, в целом, доволен жизнью, если бы только его «девочки по вызову» не исчезали так часто. Какие же они неблагодарные! Он выдаёт им авансы, жёстко разбирается с клиентами-извращенцами, создаёт все условия для работы, но - терпит убытки. Однажды Чун Хо замечает странную закономерность: всех беглянок заказывали с одного и того же телефонного номера. Его последняя девушка, Ми Чжин, как раз уехала к этому клиенту. Чун Хо не знает адреса, а связь с Ми Чжин обрывается. Он должен найти подонка, который, как он считает, продаёт его сотрудниц. По странному стечению обстоятельств, найти преступника - зловеще-невозмутимого маньяка-убийцу - оказывается легко и просто. Но «найти» ещё не значит «остановить». Начинается «гонка на выживание». Жизнь девушки и её ребенка зависит от того, кто первым найдёт последнюю жертву, — маньяк, полиция или сам Чун Хо...



Качество: BDRip AVC Сравнение с исходником
Формат: MKV
Видео кодек: H.264
Аудио кодек: AC3
Видео: MPEG-4 AVC, 2004 Кбит/с, 1024x436, 23,976 кадра/с
Аудио 1: русский, AC3, 448 kbps, 6 ch, 48 kHz [профессиональный многоголосый, Новый диск]
Аудио 2: русский, AC3, 384 kbps, 6 ch, 48 kHz [профессиональный двухголосый, Лицензия]
Аудио 3: русский, AC3, 448 kbps, 6 ch, 48 kHz [авторский, Юрий Сербин]
Аудио 4: корейский, AC3, 640 kbps, 6 ch, 48 kHz [оригинал]
Субтитры 1: русские
Субтитры 2: английские
Азиатская киноакадемия, 2009 год
Победитель (1):
Лучший монтаж

Номинации (2):
Лучшая мужская роль (Ха Чон У)
Лучшая работа сценариста
Общее
Уникальный идентификатор : 214624934323768452501976986337454952782 (0xA177423F94101F828604CCFAAB9D914E)
Полное имя : D:VideoПреследователь.2008.BDRip.AVC.mkv
Формат : Matroska
Версия формата : Version 4 / Version 2
Размер файла : 3,49 Гбайт
Продолжительность : 2 ч. 4 м.
Общий поток : 4003 Кбит/сек
Название фильма : BDRip -- STarankov
Дата кодирования : UTC 2015-07-08 04:58:26
Программа кодирования : mkvmerge v7.9.0 ('Birds') 64bit
Библиотека кодирования : libebml v1.3.1 + libmatroska v1.4.2
DURATION : 01:58:53.918000000
NUMBER_OF_FRAMES : 1337
NUMBER_OF_BYTES : 32086
_STATISTICS_WRITING_APP : mkvmerge v7.9.0 ('Birds') 64bit
_STATISTICS_WRITING_DATE_UTC : 2015-07-08 04:58:26
_STATISTICS_TAGS : BPS DURATION NUMBER_OF_FRAMES NUMBER_OF_BYTES

Видео
Идентификатор : 1
Формат : AVC
Формат/Информация : Advanced Video Codec
Профиль формата : High@L4.1
Параметр CABAC формата : Да
Параметр ReFrames формата : 9 кадров
Идентификатор кодека : V_MPEG4/ISO/AVC
Продолжительность : 2 ч. 4 м.
Битрейт : 2004 Кбит/сек
Ширина : 1024 пикселя
Высота : 436 пикселей
Соотношение сторон : 2,35:1
Режим частоты кадров : Постоянный
Частота кадров : 23,976 кадра/сек
Цветовое пространство : YUV
Субдискретизация насыщенности : 4:2:0
Битовая глубина : 8 бит
Тип развёртки : Прогрессивная
Бит/(Пиксели*Кадры) : 0.187
Размер потока : 1,75 Гбайт (50%)
Библиотека кодирования : x264 core 146 r2538 121396c
Настройки программы : cabac=1 / ref=9 / deblock=1:-1:-1 / analyse=0x3:0x113 / me=umh / subme=10 / psy=1 / psy_rd=1.00:0.15 / mixed_ref=1 / me_range=32 / chroma_me=1 / trellis=2 / 8x8dct=1 / cqm=0 / deadzone=21,11 / fast_pskip=1 / chroma_qp_offset=-3 / threads=6 / lookahead_threads=1 / sliced_threads=0 / nr=0 / decimate=1 / interlaced=0 / bluray_compat=0 / constrained_intra=0 / bframes=8 / b_pyramid=2 / b_adapt=2 / b_bias=0 / direct=1 / weightb=1 / open_gop=0 / weightp=2 / keyint=230 / keyint_min=23 / scenecut=40 / intra_refresh=0 / rc_lookahead=40 / rc=crf / mbtree=0 / crf=18.0 / qcomp=0.60 / qpmin=0 / qpmax=69 / qpstep=4 / vbv_maxrate=40000 / vbv_bufsize=50000 / crf_max=0.0 / nal_hrd=none / filler=0 / ip_ratio=1.40 / pb_ratio=1.30 / aq=1:1.00
Язык : Korean
Default : Да
Forced : Нет
DURATION : 02:04:55.447000000
NUMBER_OF_FRAMES : 179711
NUMBER_OF_BYTES : 1949452956
_STATISTICS_WRITING_APP : mkvmerge v7.9.0 ('Birds') 64bit
_STATISTICS_WRITING_DATE_UTC : 2015-07-08 04:58:26
_STATISTICS_TAGS : BPS DURATION NUMBER_OF_FRAMES NUMBER_OF_BYTES

Аудио #1
Идентификатор : 2
Формат : AC-3
Формат/Информация : Audio Coding 3
Расширение режима : CM (complete main)
Параметр Endianness формата : Big
Идентификатор кодека : A_AC3
Продолжительность : 2 ч. 4 м.
Вид битрейта : Постоянный
Битрейт : 448 Кбит/сек
Каналы : 6 каналов
Расположение каналов : Front: L C R, Side: L R, LFE
Частота : 48,0 КГц
Битовая глубина : 16 бит
Метод сжатия : С потерями
Размер потока : 400 Мбайт (11%)
Заголовок : MVO (Новый диск)
Язык : Russian
Default : Да
Forced : Нет

Аудио #2
Идентификатор : 3
Формат : AC-3
Формат/Информация : Audio Coding 3
Расширение режима : CM (complete main)
Параметр Endianness формата : Big
Идентификатор кодека : A_AC3
Продолжительность : 2 ч. 4 м.
Вид битрейта : Постоянный
Битрейт : 384 Кбит/сек
Каналы : 6 каналов
Расположение каналов : Front: L C R, Side: L R, LFE
Частота : 48,0 КГц
Битовая глубина : 16 бит
Метод сжатия : С потерями
Размер потока : 343 Мбайт (10%)
Заголовок : DVO (Лицензия)
Язык : Russian
Default : Нет
Forced : Нет

Аудио #3
Идентификатор : 4
Формат : AC-3
Формат/Информация : Audio Coding 3
Расширение режима : CM (complete main)
Параметр Endianness формата : Big
Идентификатор кодека : A_AC3
Продолжительность : 2 ч. 4 м.
Вид битрейта : Постоянный
Битрейт : 448 Кбит/сек
Каналы : 6 каналов
Расположение каналов : Front: L C R, Side: L R, LFE
Частота : 48,0 КГц
Битовая глубина : 16 бит
Метод сжатия : С потерями
Размер потока : 400 Мбайт (11%)
Заголовок : AVO (Юрий Сербин)
Язык : Russian
Default : Нет
Forced : Нет

Аудио #4
Идентификатор : 5
Формат : AC-3
Формат/Информация : Audio Coding 3
Расширение режима : CM (complete main)
Параметр Endianness формата : Big
Идентификатор кодека : A_AC3
Продолжительность : 2 ч. 4 м.
Вид битрейта : Постоянный
Битрейт : 640 Кбит/сек
Каналы : 6 каналов
Расположение каналов : Front: L C R, Side: L R, LFE
Частота : 48,0 КГц
Битовая глубина : 16 бит
Метод сжатия : С потерями
Размер потока : 572 Мбайт (16%)
Заголовок : Original
Язык : Korean
Default : Нет
Forced : Нет

Текст #1
Идентификатор : 6
Формат : UTF-8
Идентификатор кодека : S_TEXT/UTF8
Идентификатор кодека/Информация : UTF-8 Plain Text
Заголовок : русский
Язык : Russian
Default : Нет
Forced : Нет

Текст #2
Идентификатор : 7
Формат : UTF-8
Идентификатор кодека : S_TEXT/UTF8
Идентификатор кодека/Информация : UTF-8 Plain Text
Заголовок : английский
Default : Нет
Forced : Нет
piratbit.org



Скачать Преследователь через торрент http://i70.fastpic.ru/big/2015/0708/f8/54e772bbbf578af9bbc85b9e9a310df8.jpg Скачать фильм Преследователь через торрент бесплантно в хорошем качестве Описание: Раньше Чун Хо служил в элитном подразделении полиции Сеула. Теперь он — обыкновенный сутенёр. Но, в целом, доволен жизнью, если ... 8.8 10 4
Торрент: Зарегистрирован [2015-07-08 10:07] · скачан: 95 раз
Статус: √ проверено
Размер: 3.49 GB
Как cкачать? Как скачать Преследователь через торрент | qTorrent

% Раздел Тема Автор DL S | L
Фильмы [HD 720p, 1080p] (Хороший звук DUB, MVO) [ 10.92 GB ] Преследователь / Chugyeogja [2008 BDRip 1080p by msltel] MVO DVO AVO msltel Скачать
1 | 0
Фильмы [HD 720p, 1080p] (Хороший звук DUB, MVO) [ 4.73 GB ] Преследователь / Chugyeogja [2008 BDRip 720p by msltel] MVO DVO AVO msltel Скачать
1 | 0

28-11-2019 20:33  

Отключить всю рекламу на сайте

10-07-2015 21:47 Преследователь Скачать торрент  

Полный калpiratbit.org



26-07-2015 11:20 Преследователь Скачать торрент  

Чёткий фильмец, но корейцы в своём репертуаре...Местами смешные до абсурда)))piratbit.org



    Дорогой пользователь! Огромная просьба, поблагодарите релизера, оцените раздачу и оставьте свои комментарий, если Вы скачали Преследователь через торрент бесплатно! Внесите свою лепту в развитие PiratBit!
    Комментировать посты могут только пользователи прошедшие не сложную регистрацию
    Показать сообщения:    

    Преследователь через торрент
    Скачать бесплатно Преследователь
    Преследователь скачать торрент
    Преследователь смотреть онлайн
    Cкачать фильм Преследователь бесплатно
    Преследователь скачать торрент в хорошем качестве
    Преследователь смотреть онлайн бесплатно в хорошем качестве


    Вы не можете начинать темы
    Вы не можете отвечать на сообщения
    Вы не можете редактировать свои сообщения
    Вы не можете удалять свои сообщения
    Вы не можете голосовать в опросах
    Вы не можете прикреплять файлы к сообщениям
    Вы можете скачивать файлы