Присоединяйтесь к нам в Telegram!, здесь всегда актуальный адрес сайта, оперативная поддержка и многое другое!!

>

5.9

iTunes

7.4

iTunes

9.4

1 сезон

1

7.4

2 сезон

7.2

iTunes

7.3

1 сезон

13

6.1

iTunes

8.3

Пиратка

30

ULTIMATE

pack

9.9

Лицензия

ВАЖНО

ИГРА 18+

pack

7.3

RePack

MK11

7.7

RePack

jed

7.8

RePack

fifa19

8.5

RePack

RDR2

RePack

NEED FOR SPEED™ PAYBACK

5 сезон

9 сезон

Бесстыжие 9 сезон

Все сериалы

все сериалы на PB.wtf

RePack

FAR CRY 5

Anonymous, доброй ночи, мы катастрофически не успеваем собрать деньги на оплату серверов, помогите нам пожалуйста 5,10,15р., для нас важна любая помощь . В качестве благодарности мы отключим Вам всю рекламу на сайте (укажите свой ник в строку Ваше имя)!

×
  
Magnet ссылка

Наёмник: Отпущение грехов / Absolution (Киони Ваксман) [2015 г., боевик, триллер, криминал, приключения, HDRip, Любительский одноголосый "Хихидок"] piratbit.org

Наёмник: Отпущение грехов через торрент piratbit.org

Размер: 706 MB | Добавлен: 6 лет 4 мес. назад | Торрент скачан:110 раз
Смотреть онлайн Наёмник: Отпущение грехов | Скачать    Ребята, помогите собрать деньги на оплату серверов!!!

09-07-2015 18:43 Наёмник: Отпущение грехов Скачать торрент  

Наёмник: Отпущение грехов / Absolution
Год выпуска: 2015
Страна: США , Румыния / Actionhouse Pictures, Castel Film Romania
Жанр: боевик, триллер, криминал, приключения
Продолжительность: 01:31:27
Перевод: Любительский одноголосый (Хихидок)

Режиссер: Киони Ваксман

IMDB 4.20 (1092)


В ролях: Стивен Сигал, Байрон Манн, Ховард Делл, Адина Стетцу, Винни Джонс, Джош Барнетт, Мария Бата, Dominte Cosmin, Серджиу Костаке, Джордж Ремис

Описание: Когда на пути наёмного убийцы попадается девушка, убегающая от рук опасного босса мафии с мощными политическими связями и управляющий бизнесом по торговле людьми, он разрывается между её защитой и верностью государству, которое его наняло.

Качество: HDRip
Формат: AVI
Видео кодек: XviD
Аудио кодек: MP3
Видео: 640x360 (1.78:1), 25 fps, XviD build 50 ~941 kbps avg, 0.16 bit/pixel
Аудио: 48 kHz, MPEG Layer 3, 2 ch, ~128.00 kbps avg
скриншот   скриншот   скриншот   скриншот   скриншот   скриншот  

Общее
Полное имя : F:\кино\Наёмник. Отпущение грехов .2015.HDRip.700MB..avi
Формат : AVI
Формат/Информация : Audio Video Interleave
Размер файла : 706 Мбайт
Продолжительность : 1 ч. 31 м.
Общий поток : 1079 Кбит/сек
Программа кодирования : VirtualDubMod 1.5.10.3 | www.virtualdub-fr.org || (build 2550/release)
Библиотека кодирования : VirtualDubMod build 2550/release

Видео
Идентификатор : 0
Формат : MPEG-4 Visual
Профиль формата : Advanced Simple@L5
Параметр BVOP формата : 3
Параметр QPel формата : Да
Параметр GMC формата : 3 точки перехода
Параметр матрицы формата : Default (H.263)
Идентификатор кодека : XVID
Идентификатор кодека/Подсказка : XviD
Продолжительность : 1 ч. 31 м.
Битрейт : 942 Кбит/сек
Ширина : 640 пикселей
Высота : 360 пикселей
Соотношение сторон : 16:9
Частота кадров : 25,000 кадров/сек
Цветовое пространство : YUV
Субдискретизация насыщенности : 4:2:0
Битовая глубина : 8 бит
Тип развёртки : Прогрессивная
Метод сжатия : С потерями
Бит/(Пиксели*Кадры) : 0.163
Размер потока : 616 Мбайт (87%)
Библиотека кодирования : XviD 1.2.1 (UTC 2008-12-04)

Аудио
Идентификатор : 1
Формат : MPEG Audio
Версия формата : Version 1
Профиль формата : Layer 3
Режим : Joint stereo
Расширение режима : MS Stereo
Идентификатор кодека : 55
Идентификатор кодека/Подсказка : MP3
Продолжительность : 1 ч. 31 м.
Вид битрейта : Постоянный
Битрейт : 128 Кбит/сек
Каналы : 2 канала
Частота : 48,0 КГц
Метод сжатия : С потерями
Размер потока : 83,7 Мбайт (12%)
Выравнивание : Соединение по промежуткам
Продолжительность промежутка : 40 мс. (1,00 видеокадр)
Время предзагрузки промежутка : 504 мс.
Библиотека кодирования : LAME3.99r
Настройки программы : -m j -V 4 -q 2 -lowpass 17 -b 128

piratbit.org



Скачать Наёмник: Отпущение грехов через торрент https://pic1.kartinco.top/images/10/1n6g1.jpg Скачать, смотреть онлайн Наёмник: Отпущение грехов бесплантно в хорошем качестве Описание: Когда на пути наёмного убийцы попадается девушка, убегающая от рук опасного босса мафии с мощными политическими связями и ... 8.3 10 7
Торрент: Зарегистрирован [2015-07-09 18:43] · скачан: 110 раз
Статус: T временная
Размер: 706 MB
Как cкачать? Как скачать Наёмник: Отпущение грехов через торрент | UTorrent

% Раздел Тема Автор DL S | L
T Фильмы 2015 (Звук TS, Cam, VO, DVO) [ 1.89 GB ] Наёмник: Отпущение грехов / Absolution [2015 Румыния HDRip-AVC Любительский [Xixidok] + ENG + SUB GEKADOL Скачать
1 | 0
T Фильмы [HD 720p, 1080p] (Звук Cam, VO, DVO) [ 3.96 GB ] Наёмник: Отпущение грехов / Absolution [2015 BDRip 720p] VO Ворон Скачать
1 | 0
T Фильмы (Blu-ray, BD-Remux, HDDVD) [ 18.99 GB ] Наёмник: Отпущение грехов / Absolution [2015 BDRemux 1080i от NovaLan] VO Ворон Скачать
1 | 0

28-11-2019 20:33  

Отключить всю рекламу на сайте

    Дорогой пользователь! Огромная просьба, поблагодарите релизера, оцените раздачу и оставьте свои комментарий, если Вы скачали Наёмник: Отпущение грехов через торрент бесплатно!
    Комментировать посты могут только пользователи прошедшие не сложную регистрацию
    Показать сообщения:    

    Наёмник: Отпущение грехов через торрент
    Скачать бесплатно Наёмник: Отпущение грехов
    Наёмник: Отпущение грехов скачать торрент
    Наёмник: Отпущение грехов смотреть онлайн
    Cкачать фильм Наёмник: Отпущение грехов бесплатно
    Наёмник: Отпущение грехов скачать торрент в хорошем качестве
    Наёмник: Отпущение грехов смотреть онлайн бесплатно в хорошем качестве


    Вы не можете начинать темы
    Вы не можете отвечать на сообщения
    Вы не можете редактировать свои сообщения
    Вы не можете удалять свои сообщения
    Вы не можете голосовать в опросах
    Вы не можете прикреплять файлы к сообщениям
    Вы можете скачивать файлы