Доктор Стрэндж

Лицензия

Добыча

Дубляж

Дом дракона

1 сезон

Тор

Дубляж

В эфире

Дубляж

Там, где раки поют

MVO

Властелин колец

1 сезон

Deluxe

pack

Рекомендуем

30

Пиратка

ВАЖНО

ВАЖНО

Ghostwire

Пиратка

jed

RePack

nioh2

RePack

RDR2

RePack

NEED FOR SPEED™ PAYBACK

RePack

скачать торрент

Кинопоиск HD

Острые козырьки 6 сезон

6 сезон

FAR CRY 6

RePack

скачать торрент

Лицензия

скачать торрент

MVO

1

1 сезон

скачать торрент

1 сезон

скачать торрент

Лицензия

  

Женщина в золотом / Woman in Gold (Саймон Кертис / Simon Curtis) [2015, США, Великобритания, драма, BDRip 720p, Любительский (двухголосый) [ColdFilm]

Женщина в золотом через торрент piratbit.org

Размер: 4.76 GB | Добавлен: 7 лет 4 мес. назад | Торрент скачан:95 раз
Смотреть онлайн | Скачать   

10-07-2015 18:57 Женщина в золотом Скачать торрент  


Женщина в золотом / Woman in Gold



ИНФОРМАЦИЯ:
Год выпуска:2015
Страна: США, Великобритания
Жанр: драма
Продолжительность: 01:49:20
Перевод: Любительский (двухголосый) [ColdFilm]
Субтитры: английские (English-Forced)
Режиссер: Саймон Кертис / Simon Curtis

В Ролях:


Хелен Миррен (Maria Altmann), Райан Рейнольдс (Randol Schoenberg), Даниэль Брюль (Hubertus Czernin), Кэти Холмс (Pam), Татьяна Маслани (Young Maria Altmann), Макс Айронс (Fritz), Чарльз Дэнс (Sherman), Элизабет МакГоверн (Judge Florence-Marie Cooper), Джонатан Прайс (Chief Justice William Rehnquist), Антье Трауэ (Adele Bloch Bauer), Фрэнсис Фишер (Barbara Schoenberg), Мориц Бляйбтрой (Gustav Klimt)

Описание:
История Марии Альтманн, которая пытается добиться справедливости - вернуть ценности, отобранные у ее семьи нацистами несколько десятилетий назад. Среди культурного достояния женщины известная картина Густава Климта «Портрет Адели Блох-Бауэр», которую иногда называют «Золотая Адель». Вместе с неопытным, но отважным молодым адвокатом, женщина пытается доказать свои права на наследие предков.

  • Мировая премьера:9 февраля 2015

    ТЕХ.ДАННЫЕ:
    Качество: BDRip 720p
    Формат: MKV
    Видео кодек: AVC
    Аудио кодек: AC3, MP3
    Видео: AVC, 1280x536 (2.40:1), 5644 kbps, 23,976 fps, 0,343 bpp
    Аудио №1: русский / MP3 / 2.0 / 48 kHz / 192 kbps / ||
    Аудио №2: английский / AC3 / 5.1 / 48 kHz / 384 kbps / 16 bit
    Навигация по главам: есть


    Код:

    General
    Unique ID                                : 208297356150163223993488675598027503791 (0x9CB49C8ED81C2E9C8F51826FB218B8AF)
    Complete name                            : D:\Торенты\Woman.in.Gold.2015.720p.BluRay.x264.mkv
    Format                                   : Matroska
    Format version                           : Version 4 / Version 2
    File size                                : 4.76 GiB
    Duration                                 : 1h 49mn
    Overall bit rate                         : 6 226 Kbps
    Encoded date                             : UTC 2015-07-10 14:14:39
    Writing application                      : mkvmerge v8.1.0 ('Psychedelic Postcard') 32bit
    Writing library                          : libebml v1.3.1 + libmatroska v1.4.2

    Video
    ID                                       : 1
    Format                                   : AVC
    Format/Info                              : Advanced Video Codec
    Format profile                           : High@L4.1
    Format settings, CABAC                   : Yes
    Format settings, ReFrames                : 5 frames
    Codec ID                                 : V_MPEG4/ISO/AVC
    Duration                                 : 1h 49mn
    Bit rate                                 : 5 644 Kbps
    Width                                    : 1 280 pixels
    Height                                   : 536 pixels
    Display aspect ratio                     : 2.40:1
    Frame rate                               : 23.976 fps
    Color space                              : YUV
    Chroma subsampling                       : 4:2:0
    Bit depth                                : 8 bits
    Scan type                                : Progressive
    Bits/(Pixel*Frame)                       : 0.343
    Stream size                              : 4.22 GiB (89%)
    Writing library                          : x264 core 144 r2525 40bb568
    Encoding settings                        : cabac=1 / ref=5 / deblock=1:0:0 / analyse=0x3:0x133 / me=umh / subme=7 / psy=1 / psy_rd=1.00:0.00 / mixed_ref=1 / me_range=16 / chroma_me=1 / trellis=1 / 8x8dct=1 / cqm=0 / deadzone=21,11 / fast_pskip=0 / chroma_qp_offset=-2 / threads=18 / lookahead_threads=3 / sliced_threads=0 / nr=0 / decimate=1 / interlaced=0 / bluray_compat=0 / constrained_intra=0 / bframes=3 / b_pyramid=2 / b_adapt=1 / b_bias=0 / direct=1 / weightb=1 / open_gop=0 / weightp=2 / keyint=250 / keyint_min=23 / scenecut=40 / intra_refresh=0 / rc_lookahead=40 / rc=2pass / mbtree=1 / bitrate=5644 / ratetol=1.0 / qcomp=0.60 / qpmin=0 / qpmax=69 / qpstep=4 / cplxblur=20.0 / qblur=0.5 / ip_ratio=1.40 / aq=1:1.00
    Language                                 : English
    Default                                  : Yes
    Forced                                   : No

    Audio #1
    ID                                       : 5
    Format                                   : MPEG Audio
    Format version                           : Version 1
    Format profile                           : Layer 3
    Mode                                     : Joint stereo
    Mode extension                           : MS Stereo
    Codec ID                                 : A_MPEG/L3
    Codec ID/Hint                            : MP3
    Duration                                 : 1h 49mn
    Bit rate mode                            : Constant
    Bit rate                                 : 192 Kbps
    Channel(s)                               : 2 channels
    Sampling rate                            : 48.0 KHz
    Compression mode                         : Lossy
    Delay relative to video                  : 6ms
    Stream size                              : 150 MiB (3%)
    Writing library                          : LAMEUU
    Language                                 : Russian
    Default                                  : Yes
    Forced                                   : No

    Audio #2
    ID                                       : 6
    Format                                   : AC-3
    Format/Info                              : Audio Coding 3
    Mode extension                           : CM (complete main)
    Codec ID                                 : A_AC3
    Duration                                 : 1h 49mn
    Bit rate mode                            : Constant
    Bit rate                                 : 384 Kbps
    Channel(s)                               : 6 channels
    Channel positions                        : Front: L C R, Side: L R, LFE
    Sampling rate                            : 48.0 KHz
    Bit depth                                : 16 bits
    Compression mode                         : Lossy
    Stream size                              : 300 MiB (6%)
    Language                                 : English
    Default                                  : No
    Forced                                   : No

    Text #1
    ID                                       : 2
    Format                                   : UTF-8
    Codec ID                                 : S_TEXT/UTF8
    Codec ID/Info                            : UTF-8 Plain Text
    Title                                    : English-Forced
    Language                                 : English
    Default                                  : No
    Forced                                   : No

    Text #2
    ID                                       : 3
    Format                                   : VobSub
    Muxing mode                              : zlib
    Codec ID                                 : S_VOBSUB
    Codec ID/Info                            : The same subtitle format used on DVDs
    Language                                 : English
    Default                                  : No
    Forced                                   : No

    Text #3
    ID                                       : 4
    Format                                   : VobSub
    Muxing mode                              : zlib
    Codec ID                                 : S_VOBSUB
    Codec ID/Info                            : The same subtitle format used on DVDs
    Language                                 : English
    Default                                  : No
    Forced                                   : No

    Menu
    00:00:00.000                             : en:00:00:00.000
    00:04:50.207                             : en:00:04:50.207
    00:10:04.687                             : en:00:10:04.687
    00:16:42.001                             : en:00:16:42.001
    00:21:47.139                             : en:00:21:47.139
    00:29:48.745                             : en:00:29:48.745
    00:35:53.526                             : en:00:35:53.526
    00:41:57.557                             : en:00:41:57.557
    00:46:00.800                             : en:00:46:00.800
    00:55:15.687                             : en:00:55:15.687
    01:00:26.206                             : en:01:00:26.206
    01:08:10.586                             : en:01:08:10.586
    01:13:37.705                             : en:01:13:37.705
    01:19:46.740                             : en:01:19:46.740
    01:24:30.983                             : en:01:24:30.983
    01:30:09.070                             : en:01:30:09.070
    01:36:55.977                             : en:01:36:55.977
    01:40:35.738                             : en:01:40:35.738

    Скриншоты:
    !Ворон писал(а):


    Сэмпл с бюджетного рипа Женщина в золотом / Woman in Gold



  • Скачать Женщина в золотом через торрент https://pic1.kartinco.top/images/61/stazu.jpg Скачать, смотреть онлайн Женщина в золотом бесплантно в хорошем качестве Описание: История Марии Альтманн, которая пытается добиться справедливости - вернуть ценности, отобранные у ее семьи нацистами несколько ... 8.7 10 7
    Торрент: Зарегистрирован [2015-07-10 18:57] · скачан: 95 раз
    Статус: T временная
    Размер: 4.76 GB
    Как cкачать? Как скачать Женщина в золотом через торрент | UTorrent

    % Раздел Тема Автор DL S | L
    Фильмы 2015 [DVDrip, WEB-DLRip, HDrip] [ 2.18 GB ] Женщина в золотом / Woman in Gold | MVO | BDRip-AVC от potroks potroks Скачать
    1 | 0
    Фильмы 2015 [DVDrip, WEB-DLRip, HDrip] [ 2.18 GB ] Женщина в золотом / Woman in Gold | MVO | BDRip killermax2013 Скачать
    1 | 0

    28-11-2019 20:33  


    Отключить вcю реклaмy на сайте, в т.ч. и в плеере онлайн просмотра!

      Дорогой пользователь! Огромная просьба, поблагодарите релизера, оцените раздачу и оставьте свои комментарий, если Вы скачали Женщина в золотом через торрент бесплатно!!
      Комментировать посты могут только пользователи прошедшие не сложную регистрацию
      Показать сообщения:    


      Женщина в золотом через торрент
      Скачать бесплатно Женщина в золотом
      Женщина в золотом скачать торрент
      Женщина в золотом смотреть онлайн
      Cкачать фильм Женщина в золотом бесплатно
      Женщина в золотом скачать торрент в хорошем качестве
      Женщина в золотом смотреть онлайн бесплатно в хорошем качестве
      Вы не можете начинать темы
      Вы не можете отвечать на сообщения
      Вы не можете редактировать свои сообщения
      Вы не можете удалять свои сообщения
      Вы не можете голосовать в опросах
      Вы не можете прикреплять файлы к сообщениям
      Вы можете скачивать файлы
      Женщина в золотом / Woman in Gold [2015, США, Великобритания, драма, BDRip 720p, Любительский [ColdFilm] смотреть онлайн, скачать торрент picoco.icu