Доктор Стрэндж

Лицензия

Добыча

Дубляж

Дом дракона

1 сезон

Тор

Дубляж

В эфире

Дубляж

Там, где раки поют

MVO

Властелин колец

1 сезон

Ultimate

pack

Рекомендуем

30

Пиратка

ВАЖНО

ВАЖНО

Ghostwire

Пиратка

jed

RePack

nioh2

RePack

RDR2

RePack

NEED FOR SPEED™ PAYBACK

RePack

скачать торрент

Кинопоиск HD

Острые козырьки 6 сезон

6 сезон

FAR CRY 6

RePack

скачать торрент

Лицензия

скачать торрент

MVO

1

1 сезон

скачать торрент

1 сезон

скачать торрент

Лицензия

  

Моя девушка – зомби / Burying the Ex (Джо Данте) [2014, ужасы, комедия, BDRip 720p, Любительский (двухголосый) [ColdFilm]

Моя девушка – зомби через торрент piratbit.org

Размер: 4.49 GB | Добавлен: 7 лет 4 мес. назад | Торрент скачан:37 раз
Смотреть онлайн | Скачать   

12-07-2015 08:00 Моя девушка – зомби Скачать торрент  


Моя девушка – зомби / Burying the Ex
««Some relationships just won't die»»

ИНФОРМАЦИЯ:
Год выпуска:2014
Страна: США
Жанр: ужасы, комедия
Продолжительность: 01:29:31
Перевод: Любительский (двухголосый) [ColdFilm]
Режиссер: Джо Данте

В Ролях:


Антон Ельчин (Max), Эшли Грин (Evelyn), Александра Даддарио (Olivia), Оливер Купер (Travis), Озиома Акага (Kat), Марк Алан Браун (Goth Bartender), Эрика Боуи (Travis' Girl), Гэбриэлль Кристиан (Coco), Арчи Хан (Chuck), Томоко Карина (Shopping Girl), Стефани Кениг (Kendra), Wyndoline Landry (Demetria)

Описание:
Фильм рассказывает о Максе и Эвелин, отношения которых сильно портятся после того, как они начинают жить вместе. Макс обнаруживает, что Эвелин - упрямая и привыкшая всех контролировать и всеми командовать телка, но боится разрывать с ней отношения. Судьба помогает ему в этой сложной жизненной ситуации: вследствие нелепой случайности Эвелин погибает, и Макс начинает жить полной жизнью. Вскоре он знакомится с Оливией и даже готовится начать с ней совместную жизнь, но Эвелин решает восстать из могилы и вернуть своего бойфренда любой ценой, даже если для этого ей придется его самого превратить в зомби.

  • Мировая премьера:4 сентября 2014

    ТЕХ.ДАННЫЕ:
    Качество: BDRip 720p
    Формат: MKV
    Видео кодек: AVC
    Аудио кодек: AC3, DTS
    Видео: AVC, 1280x720 (16:9), 5486 kbps, 23,976 fps, 0,248 bpp
    Аудио №1: русский / AC3 / 2.0 / 48 kHz / 192 kbps / 16 bit ||
    Аудио №2: английский / DTS / 5.1 / 48 kHz / 1510 kbps / 24 bit
    Навигация по главам: есть


    Код:

    General
    Unique ID                                : 213775651258356066293949197379843824690 (0xA0D3B15C41096473B3B150BB56069C32)
    Complete name                            : D:\Торенты\M0Ya.deBushKa.30mbi.2015.L2.BDRip.720p.mkv
    Format                                   : Matroska
    Format version                           : Version 4 / Version 2
    File size                                : 4.49 GiB
    Duration                                 : 1h 29mn
    Overall bit rate                         : 7 188 Kbps
    Encoded date                             : UTC 2015-07-11 06:43:00
    Writing application                      : mkvmerge v6.5.0 ('Isn't she lovely') built on Oct 20 2013 12:50:05
    Writing library                          : libebml v1.3.0 + libmatroska v1.4.1

    Video
    ID                                       : 1
    Format                                   : AVC
    Format/Info                              : Advanced Video Codec
    Format profile                           : High@L4.1
    Format settings, CABAC                   : Yes
    Format settings, ReFrames                : 9 frames
    Codec ID                                 : V_MPEG4/ISO/AVC
    Duration                                 : 1h 29mn
    Bit rate                                 : 5 486 Kbps
    Width                                    : 1 280 pixels
    Height                                   : 720 pixels
    Display aspect ratio                     : 16:9
    Frame rate                               : 23.976 fps
    Color space                              : YUV
    Chroma subsampling                       : 4:2:0
    Bit depth                                : 8 bits
    Scan type                                : Progressive
    Bits/(Pixel*Frame)                       : 0.248
    Stream size                              : 3.34 GiB (74%)
    Title                                    : X264-720
    Writing library                          : x264 core 146 r2538 121396c
    Encoding settings                        : cabac=1 / ref=9 / deblock=1:-3:-3 / analyse=0x3:0x113 / me=umh / subme=10 / psy=1 / psy_rd=1.05:0.00 / mixed_ref=1 / me_range=36 / chroma_me=1 / trellis=2 / 8x8dct=1 / cqm=0 / deadzone=6,6 / fast_pskip=0 / chroma_qp_offset=-2 / threads=12 / lookahead_threads=3 / sliced_threads=0 / nr=0 / decimate=0 / interlaced=0 / bluray_compat=0 / constrained_intra=0 / bframes=10 / b_pyramid=2 / b_adapt=2 / b_bias=0 / direct=3 / weightb=1 / open_gop=0 / weightp=2 / keyint=250 / keyint_min=23 / scenecut=40 / intra_refresh=0 / rc=2pass / mbtree=0 / bitrate=5486 / ratetol=1.0 / qcomp=0.80 / qpmin=0 / qpmax=69 / qpstep=4 / cplxblur=20.0 / qblur=0.5 / ip_ratio=1.10 / pb_ratio=1.10 / aq=3:0.70
    Language                                 : English
    Default                                  : Yes
    Forced                                   : No

    Audio #1
    ID                                       : 2
    Format                                   : AC-3
    Format/Info                              : Audio Coding 3
    Mode extension                           : CM (complete main)
    Codec ID                                 : A_AC3
    Duration                                 : 1h 29mn
    Bit rate mode                            : Constant
    Bit rate                                 : 192 Kbps
    Channel(s)                               : 2 channels
    Channel positions                        : Front: L R
    Sampling rate                            : 48.0 KHz
    Bit depth                                : 16 bits
    Compression mode                         : Lossy
    Stream size                              : 123 MiB (3%)
    Language                                 : Russian
    Default                                  : Yes
    Forced                                   : No

    Audio #2
    ID                                       : 3
    Format                                   : DTS
    Format/Info                              : Digital Theater Systems
    Codec ID                                 : A_DTS
    Duration                                 : 1h 29mn
    Bit rate mode                            : Constant
    Bit rate                                 : 1 510 Kbps
    Channel(s)                               : 6 channels
    Channel positions                        : Front: L C R, Side: L R, LFE
    Sampling rate                            : 48.0 KHz
    Bit depth                                : 24 bits
    Compression mode                         : Lossy
    Stream size                              : 967 MiB (21%)
    Title                                    : DTS 5.1
    Language                                 : English
    Default                                  : No
    Forced                                   : No

    Menu
    00:00:00.000                             : en:00:00:00.000
    00:11:03.705                             : en:00:11:03.705
    00:20:24.348                             : en:00:20:24.348
    00:30:30.954                             : en:00:30:30.954
    00:44:11.774                             : en:00:44:11.774
    00:57:44.628                             : en:00:57:44.628
    01:09:15.735                             : en:01:09:15.735
    01:25:37.132                             : en:01:25:37.132

    Скриншоты:



  • Скачать Моя девушка – зомби через торрент https://pic1.kartinco.top/images/61/stazu.jpg Скачать, смотреть онлайн Моя девушка – зомби бесплантно в хорошем качестве Описание: Фильм рассказывает о Максе и Эвелин, отношения которых сильно портятся после того, как они начинают жить вместе. Макс ... 10 10 4
    Торрент: Зарегистрирован [2015-07-12 08:00] · скачан: 37 раз
    Статус: T временная
    Размер: 4.49 GB
    Как cкачать? Как скачать Моя девушка – зомби через торрент | UTorrent

    % Раздел Тема Автор DL S | L
    T Фильмы 2014 (Звук TS, Cam, VO, DVO) [ 1.46 GB ] Моя девушка – зомби / Burying the Ex | ColdFilm | BDRip , Любительский (двухголосый Twi7ter Скачать
    1 | 0
    T Фильмы 2014 (Звук TS, Cam, VO, DVO) [ 1.37 GB ] Моя девушка – зомби / Burying the Ex | ColdFilm | HDRip, Любительский (двухголосый Ворон Скачать
    1 | 0
    T Фильмы 2014 (Звук TS, Cam, VO, DVO) [ 1.15 GB ] Моя девушка – зомби / Burying the Ex | ColdFilm | DVDRip, Любительский (двухголосый Ворон Скачать
    1 | 0

    28-11-2019 20:33  


    Отключить вcю реклaмy на сайте, в т.ч. и в плеере онлайн просмотра!

      Дорогой пользователь! Огромная просьба, поблагодарите релизера, оцените раздачу и оставьте свои комментарий, если Вы скачали Моя девушка – зомби через торрент бесплатно!!
      Комментировать посты могут только пользователи прошедшие не сложную регистрацию
      Показать сообщения:    


      Моя девушка – зомби через торрент
      Скачать бесплатно Моя девушка – зомби
      Моя девушка – зомби скачать торрент
      Моя девушка – зомби смотреть онлайн
      Cкачать фильм Моя девушка – зомби бесплатно
      Моя девушка – зомби скачать торрент в хорошем качестве
      Моя девушка – зомби смотреть онлайн бесплатно в хорошем качестве
      Вы не можете начинать темы
      Вы не можете отвечать на сообщения
      Вы не можете редактировать свои сообщения
      Вы не можете удалять свои сообщения
      Вы не можете голосовать в опросах
      Вы не можете прикреплять файлы к сообщениям
      Вы можете скачивать файлы
      Моя девушка – зомби / Burying the Ex [2014, ужасы, комедия, BDRip 720p, Любительский [ColdFilm] смотреть онлайн, скачать торрент picoco.icu