Доктор Стрэндж

Лицензия

Добыча

MVO

Дом дракона

1 сезон

Тор

Лицензия

Мэверик

Лицензия

Там, где раки поют

MVO

Властелин колец

1 сезон

Ultimate

pack

Рекомендуем

30

Repack

ВАЖНО

ВАЖНО

Ghostwire

RePack

jed

RePack

nioh2

RePack

RDR2

RePack

NEED FOR SPEED™ PAYBACK

RePack

скачать торрент

Кинопоиск HD

Острые козырьки 6 сезон

6 сезон

FAR CRY 6

RePack

скачать торрент

Лицензия

скачать торрент

MVO

1

1 сезон

скачать торрент

1 сезон

скачать торрент

Лицензия

  

Сказание о земле Сибирской (Иван Пырьев) [1947, СССР, драма, мелодрама, музыка, DVDRip от AVP Studio]

Сказание о земле Сибирской через торрент piratbit.org

Размер: 745 MB | Добавлен: 7 лет 2 мес. назад | Торрент скачан:10 раз
Смотреть онлайн Сказание о земле Сибирской | Скачать   

14-07-2015 14:55 Сказание о земле Сибирской Скачать торрент  

Сказание о земле Сибирской
Страна: СССР
Производство: Мосфильм

Жанр: драма, мелодрама, музыка
Год выпуска: 1947
Продолжительность: 01:37:28

Перевод: Не требуется
Cубтитры: нет
Оригинальная аудиодорожка: русский

Режиссер: Иван Пырьев

В ролях:
Владимир Дружников, Марина Ладынина, Борис Андреев, Вера Васильева, Сергей Калинин, Елена Савицкая, Владимир Зельдин, Михаил Сидоркин, Григорий Шпигель, Василий Зайчиков...

Описание:
Талантливый пианист Андрей Балашов, воспитанник Московской Консерватории, после ранения на фронте лишился возможности заниматься любимым искусством. Решив уйти от друзей, от любимой девушки, певицы Наташи Малининой, Андрей уезжает в Сибирь, где работает чертёжником на строительстве бумажного комбината, а по вечерам выступает с песнями в чайной. Неожиданная встреча с друзьями и Наташей убеждает его в том, что он понапрасну растрачивает свой талант. Он уезжает в Заполярье, где, вдохновлённый героическим трудом строителей, пишет симфоническую ораторию «Сказание о земле Сибирской», которая получает всеобщее признание.

Источник: DVD5 R5
Качество видео: DVDRip
Формат видео: AVI
Видео кодек: XviD
Аудио кодек: MP3
Видео: 576x432 (4:3), 25 fps, XviD ~ 931 kbps avg, 0.150 bit/pixel
Аудио: 48 kHz, MP3 2.0, 128 kbps

Раздача от:
Общее
Полное имя : Skazanie.o.zemle.Sibirskoy.1947.DVDRip-745_[New-team]_by_AVP_Studio.avi
Формат : AVI
Формат/Информация : Audio Video Interleave
Размер файла : 745 Мбайт
Продолжительность : 1 ч. 37 м.
Общий поток : 1069 Кбит/сек
Программа кодирования : VirtualDubModRus 1.5.10.2 (build 2542/release)
Библиотека кодирования : VirtualDubMod build 2542/release

Видео
Идентификатор : 0
Формат : MPEG-4 Visual
Профиль формата : Advanced Simple@L5
Параметр BVOP формата : 1
Параметр QPel формата : Нет
Параметр GMC формата : Без точки перехода
Параметр матрицы формата : Выборочная
Идентификатор кодека : XVID
Идентификатор кодека/Подсказка : XviD
Продолжительность : 1 ч. 37 м.
Битрейт : 931 Кбит/сек
Ширина : 576 пикселей
Высота : 432 пикселя
Соотношение сторон : 4:3
Частота кадров : 25,000 кадров/сек
Цветовое пространство : YUV
Субдискретизация насыщенности : 4:2:0
Битовая глубина : 8 бит
Тип развёртки : Прогрессивная
Метод сжатия : С потерями
Бит/(Пиксели*Кадры) : 0.150
Размер потока : 649 Мбайт (87%)
Библиотека кодирования : XviD 73

Аудио
Идентификатор : 1
Формат : MPEG Audio
Версия формата : Version 1
Профиль формата : Layer 3
Идентификатор кодека : 55
Идентификатор кодека/Подсказка : MP3
Продолжительность : 1 ч. 37 м.
Вид битрейта : Постоянный
Битрейт : 128 Кбит/сек
Каналы : 2 канала
Частота : 48,0 КГц
Метод сжатия : С потерями
Размер потока : 89,2 Мбайт (12%)
Выравнивание : Соединение по промежуткам
Продолжительность промежутка : 40 мс. (1,00 видеокадр)
Время предзагрузки промежутка : 504 мс.
Библиотека кодирования : LAME3.99r
Настройки программы : -m s -V 4 -q 2 -lowpass 17 -b 128



Скачать Сказание о земле Сибирской через торрент http://s017.radikal.ru/i409/1507/ee/5ba28ee59567.png Скачать, смотреть онлайн Сказание о земле Сибирской бесплантно в хорошем качестве Описание:Талантливый пианист Андрей Балашов, воспитанник Московской Консерватории, после ранения на фронте лишился возможности заниматься ... 10 10 1
Торрент: Зарегистрирован [2015-07-14 14:55] · скачан: 10 раз
Статус: √ проверено
Размер: 745 MB
Как cкачать? Как скачать Сказание о земле Сибирской через торрент | UTorrent

% Раздел Тема Автор DL S | L
Кино СССР [ 1.46 GB ] Сказание о земле Сибирской | | DVDRip-AVC от AVP Studio AVP Studio Скачать
1 | 0
Кино СССР [ 1.46 GB ] Сказание о земле Сибирской | | DVDRip от AVP Studio AVP Studio Скачать
1 | 0
Кино СССР [ 701 MB ] Сказание о земле Сибирской | | DVDRip, виктор2992 Скачать
1 | 0

28-11-2019 20:33  

Отключить вcю реклaмy на сайте

    Дорогой пользователь! Огромная просьба, поблагодарите релизера, оцените раздачу и оставьте свои комментарий, если Вы скачали Сказание о земле Сибирской через торрент бесплатно!!
    Комментировать посты могут только пользователи прошедшие не сложную регистрацию
    Показать сообщения:    


    Сказание о земле Сибирской через торрент
    Скачать бесплатно Сказание о земле Сибирской
    Сказание о земле Сибирской скачать торрент
    Сказание о земле Сибирской смотреть онлайн
    Cкачать фильм Сказание о земле Сибирской бесплатно
    Сказание о земле Сибирской скачать торрент в хорошем качестве
    Сказание о земле Сибирской смотреть онлайн бесплатно в хорошем качестве
    Вы не можете начинать темы
    Вы не можете отвечать на сообщения
    Вы не можете редактировать свои сообщения
    Вы не можете удалять свои сообщения
    Вы не можете голосовать в опросах
    Вы не можете прикреплять файлы к сообщениям
    Вы можете скачивать файлы