Доктор Стрэндж

Лицензия

Добыча

Дубляж

Уэнсдэй

1 сезон

Тор

Дубляж

В эфире

Дубляж

Там, где раки поют

MVO

Властелин колец

1 сезон

Deluxe

pack

Рекомендуем

30

Пиратка

ВАЖНО

ВАЖНО

Ghostwire

Пиратка

jed

RePack

nioh2

RePack

RDR2

RePack

NEED FOR SPEED™ PAYBACK

RePack

скачать торрент

Кинопоиск HD

Острые козырьки 6 сезон

6 сезон

FAR CRY 6

RePack

скачать торрент

Лицензия

скачать торрент

MVO

1

1 сезон

скачать торрент

1 сезон

скачать торрент

Лицензия

  

Второй шанс / En chance til (Сюзанна Бир) [2014, триллер, драма, BDRip 1080p] DVO

Второй шанс через торрент piratbit.org

Размер: 7.92 GB | Добавлен: 7 лет 4 мес. назад | Торрент скачан:45 раз
Смотреть онлайн | Скачать   

18-07-2015 06:43 Второй шанс Скачать торрент  

Название: Второй шанс

Оригинальное название: En chance til

Год выхода: 2014

Выпущено: Дания / Zentropa Entertainments, Danmarks Radio (DR), Det Danske Filminstitut

Продолжительность: 01:34:01

Озвучивание: Любительское (двухголосное) [Lucky Strike]
Субтитры: Russian

Жанр: триллер, драма

Режиссер: Сюзанна Бир

В ролях: Николай Костер-Вальдау, Ульрих Томсен, Николай Ли Каас, Мария Бонневи, Томас Бо Ларсен, Питер Абер, Мэй Андерсен, Бодиль Ёргенсон, Оле Дюпон, Молли Бликст Эгелинд

Описание: История похищения усыновленного ребенка, прежде спасенного полицейским от жестокого наркомана-отца.



Файл

Качество: BDRip 1080p
Формат:MKV
Видео кодек: AVC
Аудио кодек: DTS,AC3
Видео: 9221 kb/s, 1920x816, 23,976 fps
Аудио: Russian: AC3, 384 kb/s (2 ch) , 48.0 KHz
Аудио: Dutch: DTS, 1510 kb/s (6 ch), 48.0 KHz

Дополнительно: Сохранены оригинальные чаптеры, как и на Blu-Ray.
Общее
Уникальный идентификатор : 220704781759322340189445376297125057564 (0xA60A31DECDE28AD79DAAD12DC8D8941C)
Полное имя : D:\Торенты\En.Chance.Til.2014.L2.BDRip.1080p.mkv
Формат : Matroska
Версия формата : Version 4 / Version 2
Размер файла : 7,92 Гбайт
Продолжительность : 1 ч. 42 м.
Общий поток : 11,1 Мбит/сек
Название фильма : En.Chance.Til.2014.L2.BDRip.1080p.ELEKTRI4KA.uniongang.tv [Carl Gaus]
Дата кодирования : UTC 2015-07-16 06:04:47
Программа кодирования : mkvmerge v6.9.1 ('Blue Panther') 64bit built on Apr 18 2014 18:23:38
Библиотека кодирования : libebml v1.3.0 + libmatroska v1.4.1

Видео
Идентификатор : 1
Формат : AVC
Формат/Информация : Advanced Video Codec
Профиль формата : High@L4.1
Параметр CABAC формата : Да
Параметр ReFrames формата : 5 кадров
Идентификатор кодека : V_MPEG4/ISO/AVC
Продолжительность : 1 ч. 42 м.
Битрейт : 9221 Кбит/сек
Ширина : 1920 пикселей
Высота : 816 пикселей
Соотношение сторон : 2,35:1
Режим частоты кадров : Постоянный
Частота кадров : 24,000 кадра/сек
Цветовое пространство : YUV
Субдискретизация насыщенности : 4:2:0
Битовая глубина : 8 бит
Тип развёртки : Прогрессивная
Бит/(Пиксели*Кадры) : 0.245
Размер потока : 6,41 Гбайт (81%)
Заголовок : En.Chance.Til.2014.L2.BDRip.1080p.ELEKTRI4KA.uniongang.tv [Carl Gaus]
Библиотека кодирования : x264 core 146 r2538 121396c
Настройки программы : cabac=1 / ref=5 / deblock=1:0:0 / analyse=0x3:0x133 / me=umh / subme=7 / psy=1 / psy_rd=1.00:0.00 / mixed_ref=1 / me_range=16 / chroma_me=1 / trellis=1 / 8x8dct=1 / cqm=0 / deadzone=21,11 / fast_pskip=1 / chroma_qp_offset=-2 / threads=8 / lookahead_threads=1 / sliced_threads=0 / nr=0 / decimate=1 / interlaced=0 / bluray_compat=0 / constrained_intra=0 / bframes=3 / b_pyramid=2 / b_adapt=2 / b_bias=0 / direct=3 / weightb=1 / open_gop=0 / weightp=2 / keyint=250 / keyint_min=24 / scenecut=40 / intra_refresh=0 / rc_lookahead=50 / rc=2pass / mbtree=1 / bitrate=9221 / ratetol=1.0 / qcomp=0.60 / qpmin=0 / qpmax=69 / qpstep=4 / cplxblur=20.0 / qblur=0.5 / ip_ratio=1.40 / aq=1:1.00
Язык : Danish
Default : Да
Forced : Нет

Аудио #1
Идентификатор : 2
Формат : AC-3
Формат/Информация : Audio Coding 3
Расширение режима : CM (complete main)
Параметр Endianness формата : Big
Идентификатор кодека : A_AC3
Продолжительность : 1 ч. 42 м.
Вид битрейта : Постоянный
Битрейт : 384 Кбит/сек
Каналы : 2 канала
Расположение каналов : Front: L R
Частота : 48,0 КГц
Битовая глубина : 16 бит
Метод сжатия : С потерями
Размер потока : 280 Мбайт (3%)
Заголовок : L2 [Lucky Strike] - En.Chance.Til.2014.L2.BDRip.1080p.ELEKTRI4KA.uniongang.tv [Carl Gaus]
Язык : Russian
Default : Да
Forced : Нет

Аудио #2
Идентификатор : 3
Формат : DTS
Формат/Информация : Digital Theater Systems
Режим : 16
Параметр Endianness формата : Big
Идентификатор кодека : A_DTS
Продолжительность : 1 ч. 42 м.
Вид битрейта : Постоянный
Битрейт : 1509 Кбит/сек
Каналы : 6 каналов
Расположение каналов : Front: L C R, Side: L R, LFE
Частота : 48,0 КГц
Битовая глубина : 24 бит
Метод сжатия : С потерями
Размер потока : 1,08 Гбайт (14%)
Заголовок : Original - En.Chance.Til.2014.L2.BDRip.1080p.ELEKTRI4KA.uniongang.tv [Carl Gaus]
Язык : Danish
Default : Нет
Forced : Нет

Текст #1
Идентификатор : 4
Формат : UTF-8
Идентификатор кодека : S_TEXT/UTF8
Идентификатор кодека/Информация : UTF-8 Plain Text
Заголовок : En.Chance.Til.2014.L2.BDRip.1080p.ELEKTRI4KA.uniongang.tv [Carl Gaus]
Язык : Russian
Default : Да
Forced : Да

Текст #2
Идентификатор : 5
Формат : ASS
Идентификатор кодека : S_TEXT/ASS
Идентификатор кодека/Информация : Advanced Sub Station Alpha
Метод сжатия : Без потерь
Заголовок : En.Chance.Til.2014.L2.BDRip.1080p.ELEKTRI4KA.uniongang.tv [Carl Gaus] - ASS
Язык : Russian
Default : Нет
Forced : Нет

Текст #3
Идентификатор : 6
Формат : UTF-8
Идентификатор кодека : S_TEXT/UTF8
Идентификатор кодека/Информация : UTF-8 Plain Text
Заголовок : En.Chance.Til.2014.L2.BDRip.1080p.ELEKTRI4KA.uniongang.tv [Carl Gaus]
Язык : Russian
Default : Нет
Forced : Нет

Меню
00:00:00.000 : en:00:00:00.000
00:09:59.917 : en:00:09:59.917
00:19:59.625 : en:00:19:59.625
00:29:59.792 : en:00:29:59.792
00:39:59.667 : en:00:39:59.667
00:49:59.917 : en:00:49:59.917
00:59:59.792 : en:00:59:59.792
01:09:59.958 : en:01:09:59.958
01:19:59.792 : en:01:19:59.792
01:29:59.917 : en:01:29:59.917
01:39:59.792 : en:01:39:59.792




Скачать Второй шанс через торрент http://i71.fastpic.ru/big/2015/0717/a8/1d6d6bbbe941940d75d00181860261a8.jpg Скачать, смотреть онлайн Второй шанс бесплантно в хорошем качестве Описание: История похищения усыновленного ребенка, прежде спасенного полицейским от жестокого наркомана-отца. ... 10 10 3
Торрент: Зарегистрирован [2015-07-18 06:43] · скачан: 45 раз
Статус: T временная
Размер: 7.92 GB
Как cкачать? Как скачать Второй шанс через торрент | UTorrent

% Раздел Тема Автор DL S | L
Фильмы [HD 720p, 1080p] (Звук Cam, VO, DVO) [ 10.33 GB ] Второй шанс / En chance til | | 1080p msltel Скачать
1 | 0
Фильмы [HD 720p, 1080p] (Звук Cam, VO, DVO) [ 4.07 GB ] Второй шанс / En chance til | | 720p msltel Скачать
1 | 0
Фильмы 2014 (Звук TS, Cam, VO, DVO) [ 2.27 GB ] Второй шанс / En chance til | | BDRip-AVC msltel Скачать
2 | 0
Фильмы [HD 720p, 1080p] (Звук Cam, VO, DVO) [ 5.34 GB ] Второй шанс / En chance til | | 720p Ворон Скачать
1 | 0
T Фильмы 2014 (Звук TS, Cam, VO, DVO) [ 1.46 GB ] Второй шанс / En chance til | | HDRip Ворон Скачать
1 | 0

28-11-2019 20:33  


Отключить вcю реклaмy на сайте, в т.ч. и в плеере онлайн просмотра!

    Дорогой пользователь! Огромная просьба, поблагодарите релизера, оцените раздачу и оставьте свои комментарий, если Вы скачали Второй шанс через торрент бесплатно!!
    Комментировать посты могут только пользователи прошедшие не сложную регистрацию
    Показать сообщения:    


    Второй шанс через торрент
    Скачать бесплатно Второй шанс
    Второй шанс скачать торрент
    Второй шанс смотреть онлайн
    Cкачать фильм Второй шанс бесплатно
    Второй шанс скачать торрент в хорошем качестве
    Второй шанс смотреть онлайн бесплатно в хорошем качестве
    Вы не можете начинать темы
    Вы не можете отвечать на сообщения
    Вы не можете редактировать свои сообщения
    Вы не можете удалять свои сообщения
    Вы не можете голосовать в опросах
    Вы не можете прикреплять файлы к сообщениям
    Вы можете скачивать файлы
    Второй шанс / En chance til [2014, триллер, драма, BDRip 1080p] DVO смотреть онлайн, скачать торрент picoco.icu