Доктор Стрэндж

Лицензия

Добыча

Дубляж

Дом дракона

1 сезон

Тор

Дубляж

В эфире

Дубляж

Там, где раки поют

MVO

Властелин колец

1 сезон

Ultimate

pack

Рекомендуем

30

Пиратка

ВАЖНО

ВАЖНО

Ghostwire

Пиратка

jed

RePack

nioh2

RePack

RDR2

RePack

NEED FOR SPEED™ PAYBACK

RePack

скачать торрент

Кинопоиск HD

Острые козырьки 6 сезон

6 сезон

FAR CRY 6

RePack

скачать торрент

Лицензия

скачать торрент

MVO

1

1 сезон

скачать торрент

1 сезон

скачать торрент

Лицензия

  

Колодец (Последние выжившие) / Последние выжившие / The Well (Томас С. Хэммок) [2014, ужасы, боевик, триллер, BDRip 1080p от NovaLan] VO

Колодец через торрент piratbit.org

Размер: 7.85 GB | Добавлен: 7 лет 4 мес. назад | Торрент скачан:73 раза
Смотреть онлайн | Скачать   

18-07-2015 13:24 Колодец Скачать торрент  

Название: Колодец (Последние выжившие)

Оригинальное название: The Well (The Last Survivors)

Год выхода: 2014

Жанр: Боевик, триллер, ужасы

Страна: США, Federighi Films

Продолжительность: 01:34:50

Озвучено: Любительский одноголосый (Хихикающий доктор)

Перевод фильма: Enigma

Режиссер: Томас С. Хэммок

В ролях: Хейли Лу Ричардсон, Бу Бу Стюарт, Макс Чарльз, Николь Арианна Фокс, Майкл Уэлш, Джон Грайз, Майкл Масси, Рина Оуэн, Лео Ли, Барбара Крэмптон

Описание:

Пост-апокалиптический триллер о ближайшем будущем. Пресная вода, самый ценный товар, закончилась. Жадный до воды барон, определяет, кому жить, а кому умереть. Героиня Кендал, храбрая 17-летняя девушка, встает на пути этого злодея.



Качество: BDRip 1080p
Формат:MKV
Видео кодек: AVC
Аудио кодек: AC3
Видео: MPEG-4 AVC, 9121 Кбит/с, 1920x804, 23.976 кадр/с
Перевод: Русский (AC3, 6 ch, 448 Кбит/с), 48.0 KHz
Перевод: Русский (DTS, 6 ch, 1510 Кбит/с), 48.0 KHz
Перевод: английский (DTS, 6 ch, 755 Кбит/с), 48.0 KHz
Полное имя : E:The.Last.Survivors.2014.x264.BDRip.1080p.NovaLan.mkv

Формат : Matroska

Версия формата : Version 4 / Version 2

Размер файла : 7,85 Гбайт

Продолжительность : 1 ч. 34 м.

Общий поток : 11,8 Мбит/сек

Название фильма : The Last Survivors 2014 - NovaLan

Дата кодирования : UTC 2015-07-18 08:29:11

Программа кодирования : mkvmerge v8.1.0 ('Psychedelic Postcard') 64bit

Библиотека кодирования : libebml v1.3.1 + libmatroska v1.4.2

DURATION : 01:34:50.027000000

NUMBER_OF_FRAMES : 533440

NUMBER_OF_BYTES : 546242560

_STATISTICS_WRITING_APP : mkvmerge v8.1.0 ('Psychedelic Postcard') 64bit

_STATISTICS_WRITING_DATE_UTC : 2015-07-18 08:29:11

_STATISTICS_TAGS : BPS DURATION NUMBER_OF_FRAMES NUMBER_OF_BYTES

Видео

Идентификатор : 1

Формат : AVC

Формат/Информация : Advanced Video Codec

Профиль формата : High@L4.1

Параметр CABAC формата : Да

Параметр ReFrames формата : 4 кадра

Идентификатор кодека : V_MPEG4/ISO/AVC

Продолжительность : 1 ч. 34 м.

Битрейт : 9121 Кбит/сек

Ширина : 1920 пикселей

Высота : 804 пикселя

Соотношение сторон : 2,40:1

Частота кадров : 23,976 кадра/сек

Цветовое пространство : YUV

Субдискретизация насыщенности : 4:2:0

Битовая глубина : 8 бит

Тип развёртки : Прогрессивная

Бит/(Пиксели*Кадры) : 0.246

Размер потока : 5,89 Гбайт (75%)

Заголовок : Sergei7721

Библиотека кодирования : x264 core 146 r2538 121396c

Настройки программы : cabac=1 / ref=4 / deblock=1:-1:-1 / analyse=0x3:0x113 / me=umh / subme=11 / psy=1 / psy_rd=1.00:0.20 / mixed_ref=1 / me_range=24 / chroma_me=1 / trellis=2 / 8x8dct=1 / cqm=0 / deadzone=21,11 / fast_pskip=0 / chroma_qp_offset=-3 / threads=12 / lookahead_threads=1 / sliced_threads=0 / nr=0 / decimate=0 / interlaced=0 / bluray_compat=0 / constrained_intra=0 / bframes=6 / b_pyramid=2 / b_adapt=2 / b_bias=0 / direct=3 / weightb=1 / open_gop=0 / weightp=2 / keyint=240 / keyint_min=23 / scenecut=40 / intra_refresh=0 / rc_lookahead=40 / rc=2pass / mbtree=0 / bitrate=9121 / ratetol=1.0 / qcomp=0.60 / qpmin=0 / qpmax=69 / qpstep=4 / cplxblur=20.0 / qblur=0.5 / vbv_maxrate=50000 / vbv_bufsize=62500 / nal_hrd=none / filler=0 / ip_ratio=1.40 / pb_ratio=1.30 / aq=1:1.00

Default : Да

Forced : Нет

DURATION : 01:34:49.684000000

NUMBER_OF_FRAMES : 136416

NUMBER_OF_BYTES : 6485327622

_STATISTICS_WRITING_APP : mkvmerge v8.1.0 ('Psychedelic Postcard') 64bit

_STATISTICS_WRITING_DATE_UTC : 2015-07-18 08:29:11

_STATISTICS_TAGS : BPS DURATION NUMBER_OF_FRAMES NUMBER_OF_BYTES

Аудио #1

Идентификатор : 2

Формат : AC-3

Формат/Информация : Audio Coding 3

Расширение режима : CM (complete main)

Параметр Endianness формата : Big

Идентификатор кодека : A_AC3

Продолжительность : 1 ч. 34 м.

Вид битрейта : Постоянный

Битрейт : 448 Кбит/сек

Каналы : 6 каналов

Расположение каналов : Front: L C R, Side: L R, LFE

Частота : 48,0 КГц

Битовая глубина : 16 бит

Метод сжатия : С потерями

Размер потока : 304 Мбайт (4%)

Язык : Russian

Default : Да

Forced : Нет

Аудио #2

Идентификатор : 3

Формат : DTS

Формат/Информация : Digital Theater Systems

Идентификатор кодека : A_DTS

Продолжительность : 1 ч. 34 м.

Вид битрейта : Постоянный

Битрейт : 1510 Кбит/сек

Каналы : 6 каналов

Расположение каналов : Front: L C R, Side: L R, LFE

Частота : 48,0 КГц

Битовая глубина : 24 бит

Метод сжатия : С потерями

Размер потока : 1,00 Гбайт (13%)

Язык : Russian

Default : Нет

Forced : Нет

Аудио #3

Идентификатор : 4

Формат : DTS

Формат/Информация : Digital Theater Systems

Идентификатор кодека : A_DTS

Продолжительность : 1 ч. 34 м.

Вид битрейта : Постоянный

Битрейт : 755 Кбит/сек

Каналы : 6 каналов

Расположение каналов : Front: L C R, Side: L R, LFE

Частота : 48,0 КГц

Битовая глубина : 24 бит

Метод сжатия : С потерями

Размер потока : 512 Мбайт (6%)

Язык : English

Default : Нет

Forced : Нет

Меню

00:00:00.000 : en:00:00:00.000

00:09:53.301 : en:00:09:53.301

00:21:54.730 : en:00:21:54.730

00:33:43.521 : en:00:33:43.521

00:44:28.832 : en:00:44:28.832

00:57:50.633 : en:00:57:50.633

01:13:48.674 : en:01:13:48.674

01:23:56.114 : en:01:23:56.114

01:29:52.762 : en:01:29:52.762
Релиз группа NovaLan

Автор релиза Sergei7721







Скачать Колодец через торрент http://i70.fastpic.ru/big/2015/0718/e0/13ae55b4d88ed5e0283a9ef4c10526e0.png Скачать, смотреть онлайн Колодец бесплантно в хорошем качестве Описание: Пост-апокалиптический триллер о ближайшем будущем. Пресная вода, самый ценный товар, закончилась. Жадный до воды барон, ... 9.7 10 3
Торрент: Зарегистрирован [2015-07-18 13:24] · скачан: 73 раз
Статус: √ проверено
Размер: 7.85 GB
Как cкачать? Как скачать Колодец через торрент | UTorrent

28-11-2019 20:33  


Отключить вcю реклaмy на сайте, в т.ч. и в плеере онлайн просмотра!

    Дорогой пользователь! Огромная просьба, поблагодарите релизера, оцените раздачу и оставьте свои комментарий, если Вы скачали Колодец через торрент бесплатно!!
    Комментировать посты могут только пользователи прошедшие не сложную регистрацию
    Показать сообщения:    


    Колодец через торрент
    Скачать бесплатно Колодец
    Колодец скачать торрент
    Колодец смотреть онлайн
    Cкачать фильм Колодец бесплатно
    Колодец скачать торрент в хорошем качестве
    Колодец смотреть онлайн бесплатно в хорошем качестве
    Вы не можете начинать темы
    Вы не можете отвечать на сообщения
    Вы не можете редактировать свои сообщения
    Вы не можете удалять свои сообщения
    Вы не можете голосовать в опросах
    Вы не можете прикреплять файлы к сообщениям
    Вы можете скачивать файлы
    Колодец / Последние выжившие / The Well [2014, ужасы, боевик, триллер, BDRip 1080p от NovaLan] VO смотреть онлайн, скачать торрент picoco.icu