Присоединяйтесь к нам в Telegram!, здесь всегда актуальный адрес сайта, оперативная поддержка и многое другое!!

>

5.9

iTunes

7.4

iTunes

9.4

1 сезон

1

7.4

2 сезон

7.2

iTunes

7.3

1 сезон

13

6.1

iTunes

8.3

Пиратка

30

ULTIMATE

pack

9.9

Лицензия

ВАЖНО

ИГРА 18+

pack

7.3

RePack

MK11

7.7

RePack

jed

7.8

RePack

fifa19

8.5

RePack

RDR2

RePack

NEED FOR SPEED™ PAYBACK

5 сезон

9 сезон

Бесстыжие 9 сезон

Все сериалы

все сериалы на PB.wtf

RePack

FAR CRY 5

Anonymous, доброй ночи, мы катастрофически не успеваем собрать деньги на оплату серверов, помогите нам пожалуйста 5,10,15р., для нас важна любая помощь . В качестве благодарности мы отключим Вам всю рекламу на сайте (укажите свой ник в строку Ваше имя)!

×
  
Magnet ссылка

Нити / Strings (Даниэль Дуран) [2015, драма, музыка, WEB-DLRip, Любительский (одноголосый) piratbit.org

Нити через торрент piratbit.org

Размер: 1.45 GB | Добавлен: 6 лет 4 мес. назад | Торрент скачан:32 раза
Смотреть онлайн Нити | Скачать    Ребята, помогите собрать деньги на оплату серверов!!!

20-07-2015 13:30 Нити Скачать торрент  


Нити / Strings
««It was he against the world until the world listened»»

ИНФОРМАЦИЯ:
Год выпуска:2015
Страна: Канада, США
Жанр: драма, музыка
Продолжительность: 01:53:46
Перевод: Любительский (одноголосый)[Виктор Береговых]
Режиссер: Даниэль Дуран

В Ролях:


Лора Дерн (Annie), Мария Белло, Джош Дюамель (Alex), Лукас Тилл (Josh Harvest), Том Эверетт Скотт, Джей Хед (Tony), Керингтон Пэйн (Mary), Катрина Норма (Kerry), Меган Трейнер (King's Dancer), Шамир Андерсон (Brandon), Кристофер Мартинес (Chris), Али Татарин (Hot Girl #1)

Описание:
Джош живет в Нью-Йорке и больше всего на свете любит музыку. После неприятного инцидента он вынужден покинуть город и переехать в провинциальный городок. Мало того, что здесь ничего не происходит, так еще выясняется что почти у всех жителей здесь тяжелое прошлое...

  • Мировая премьера:8 мая 2015

    ТЕХ.ДАННЫЕ:
    Качество: WEB-DLRip
    Формат: AVI
    Видео кодек: XviD
    Аудио кодек: AC3
    Видео: XviD, 720x304 (2.35:1), 1556 kbps, 23,976 fps, 0,297 bpp
    Аудио: AC3 / 2.0 / 48 kHz / 192 kbps / 16 bit


    Код:

    General
    Complete name                            : D:\Торенты\Niti.2014.L1.WEB-DLRip.avi
    Format                                   : AVI
    Format/Info                              : Audio Video Interleave
    File size                                : 1.45 GiB
    Duration                                 : 1h 53mn
    Overall bit rate                         : 1 830 Kbps
    Writing application                      : VirtualDubMod 1.5.10.3 | www.virtualdub-fr.org || (build 2550/release)
    Writing library                          : VirtualDubMod build 2550/release

    Video
    ID                                       : 0
    Format                                   : MPEG-4 Visual
    Format profile                           : Advanced Simple@L5
    Format settings, BVOP                    : 1
    Format settings, QPel                    : No
    Format settings, GMC                     : No warppoints
    Format settings, Matrix                  : Custom
    Codec ID                                 : XVID
    Codec ID/Hint                            : XviD
    Duration                                 : 1h 53mn
    Bit rate                                 : 1 557 Kbps
    Width                                    : 720 pixels
    Height                                   : 304 pixels
    Display aspect ratio                     : 2.35:1
    Frame rate                               : 23.976 fps
    Color space                              : YUV
    Chroma subsampling                       : 4:2:0
    Bit depth                                : 8 bits
    Scan type                                : Progressive
    Compression mode                         : Lossy
    Bits/(Pixel*Frame)                       : 0.297
    Stream size                              : 1.24 GiB (85%)
    Writing library                          : XviD 73

    Audio
    ID                                       : 1
    Format                                   : AC-3
    Format/Info                              : Audio Coding 3
    Mode extension                           : CM (complete main)
    Codec ID                                 : 2000
    Duration                                 : 1h 53mn
    Bit rate mode                            : Constant
    Bit rate                                 : 192 Kbps
    Channel(s)                               : 2 channels
    Channel positions                        : Front: L R
    Sampling rate                            : 48.0 KHz
    Bit depth                                : 16 bits
    Compression mode                         : Lossy
    Stream size                              : 156 MiB (10%)
    Alignment                                : Split accross interleaves

    Скриншоты:


    © Оформление by Ворон
    piratbit.org



  • Скачать Нити через торрент https://pic1.kartinco.top/images/61/ordi9.jpg Скачать, смотреть онлайн Нити бесплантно в хорошем качестве Описание: Джош живет в Нью-Йорке и больше всего на свете любит музыку. После неприятного инцидента он вынужден покинуть город и переехать в ... 10 10 2
    Торрент: Зарегистрирован [2015-07-20 13:30] · скачан: 32 раз
    Статус: T временная
    Размер: 1.45 GB
    Как cкачать? Как скачать Нити через торрент | UTorrent

    % Раздел Тема Автор DL S | L
    Порно фильмы с сюжетом [ 699 MB ] Нити Сердца / Heart Strings [2011.Feature. DVDRip] Shmel Скачать
    1 | 0

    28-11-2019 20:33  

    Отключить всю рекламу на сайте

      Дорогой пользователь! Огромная просьба, поблагодарите релизера, оцените раздачу и оставьте свои комментарий, если Вы скачали Нити через торрент бесплатно!
      Комментировать посты могут только пользователи прошедшие не сложную регистрацию
      Показать сообщения:    

      Нити через торрент
      Скачать бесплатно Нити
      Нити скачать торрент
      Нити смотреть онлайн
      Cкачать фильм Нити бесплатно
      Нити скачать торрент в хорошем качестве
      Нити смотреть онлайн бесплатно в хорошем качестве


      Вы не можете начинать темы
      Вы не можете отвечать на сообщения
      Вы не можете редактировать свои сообщения
      Вы не можете удалять свои сообщения
      Вы не можете голосовать в опросах
      Вы не можете прикреплять файлы к сообщениям
      Вы можете скачивать файлы