Ссылка на приватное зеркало нашего сайта всего за 1$. Внимание количество ограничено!!!

2 сезон

iTunes

iTunes

1

iTunes

iTunes

iTunes

WEBRip

iTunes

30
pack

Новость дня

ВАЖНО

!!Акция!!

Alien_RageХит недели

RePack

Horizon Zero Dawn

ИГРА 18+

pack

RePack

jed

!!Акция!!

Alien_Rage

RePack

fifa19

RePack

Assassins Creed: Odyssey

RePack

NEED FOR SPEED™ PAYBACK

4 сезон

9 сезон

Бесстыжие 9 сезон

Все сериалы

все сериалы на PB.wtf

RePack

FAR CRY 5
  

Идеальный незнакомец / Perfect stranger (Джеймс Фоули) [2007, триллер, драма, криминал, детектив, BDRip AVC by msltel] DUB, AVO piratbit.org

Идеальный незнакомец через торрент piratbit.org

Размер: 2.58 GB | Добавлен: 5 лет 2 мес. назад | Торрент скачан:240 раз
Скачать  

20-07-2015 14:36 Идеальный незнакомец Скачать торрент  

Название: Идеальный незнакомец
Оригинальное название: Perfect stranger
Год выпуска: 2007
Страна: США
Жанр: триллер, драма, криминал, детектив
Продолжительность: 01:48:58
Перевод: дублированный, авторский

Режиссёр: Джеймс Фоули

В ролях: Холли Берри, Брюс Уиллис, Джованни Рибизи, Ричард Портноу, Гари Дурдан, Флоренция Лозаньо, Никки Эйкокс, Кэтлин Чэлфант, Гордон МакДональд, Дэниэлла Ван Граас, Паула Миранда, Патти Д`Арбанвилль, Клеа Льюис, Тамара Фельдман, Джерри Бекер, Джаред Бурк

Описание: Когда журналистка Ровена Прайс, занимающаяся расследованием убийства своей подруги, узнаёт, что к нему может быть причастен влиятельный глава рекламного агентства Харрисон Хилл, она затевает опасную игру вместе со своим помощником Майлзом Хэйли. Принимая образы Катарины, машинистки в агентстве Хилла, Вероники, девушки, с которой Хилл флиртует в Интернете, она плетёт хитроумную паутину вокруг своей жертвы, чтобы, в конечном счёте, выяснить, что она не единственная, кто меняет свои личины. Чем ближе мы приближаемся к разгадке тайны, тем очевиднее ответ на вопрос, как далеко люди готовы идти, чтобы защитить её: сокровенную тайну.



Качество: BDRip AVC Сравнение с исходником
Формат: MKV
Видео кодек: H.264
Аудио кодек: AC3
Видео: MPEG-4 AVC, 1977 Кбит/с, 1024х426, 23,976 кадра/с
Аудио 1: русский, AC3, 448 kbps, 6 ch, 48 kHz [дублированный]
Аудио 2: русский, AC3, 448 kbps, 6 ch, 48 kHz [авторский, Андрей Гаврилов]
Аудио 3: английский, AC3, 448 kbps, 6 ch, 48 kHz [оригинал]
Субтитры: английские
Общее
Уникальный идентификатор : 218570092091241563811300449912142601142 (0xA46F118B38ACDDCDA15388545ABA9BB6)
Полное имя : D:\Video\Идеальный незнакомец.2007.BDRip.AVC.mkv
Формат : Matroska
Версия формата : Version 4 / Version 2
Размер файла : 2,58 Гбайт
Продолжительность : 1 ч. 48 м.
Общий поток : 3389 Кбит/сек
Название фильма : BDRip -- STarankov
Дата кодирования : UTC 2015-07-20 12:43:22
Программа кодирования : mkvmerge v8.2.0 ('World of Adventure') 64bit
Библиотека кодирования : libebml v1.3.1 + libmatroska v1.4.2
DURATION : 01:39:24.416000000
NUMBER_OF_FRAMES : 1477
NUMBER_OF_BYTES : 53663
_STATISTICS_WRITING_APP : mkvmerge v8.2.0 ('World of Adventure') 64bit
_STATISTICS_WRITING_DATE_UTC : 2015-07-20 12:43:22
_STATISTICS_TAGS : BPS DURATION NUMBER_OF_FRAMES NUMBER_OF_BYTES

Видео
Идентификатор : 1
Формат : AVC
Формат/Информация : Advanced Video Codec
Профиль формата : High@L4.1
Параметр CABAC формата : Да
Параметр ReFrames формата : 9 кадров
Идентификатор кодека : V_MPEG4/ISO/AVC
Продолжительность : 1 ч. 48 м.
Битрейт : 1977 Кбит/сек
Ширина : 1024 пикселя
Высота : 426 пикселей
Соотношение сторон : 2,40:1
Режим частоты кадров : Постоянный
Частота кадров : 23,976 кадра/сек
Цветовое пространство : YUV
Субдискретизация насыщенности : 4:2:0
Битовая глубина : 8 бит
Тип развёртки : Прогрессивная
Бит/(Пиксели*Кадры) : 0.189
Размер потока : 1,51 Гбайт (58%)
Библиотека кодирования : x264 core 146 r2538 121396c
Настройки программы : cabac=1 / ref=9 / deblock=1:-1:-1 / analyse=0x3:0x113 / me=umh / subme=10 / psy=1 / psy_rd=1.00:0.15 / mixed_ref=1 / me_range=32 / chroma_me=1 / trellis=2 / 8x8dct=1 / cqm=0 / deadzone=21,11 / fast_pskip=1 / chroma_qp_offset=-3 / threads=6 / lookahead_threads=1 / sliced_threads=0 / nr=0 / decimate=1 / interlaced=0 / bluray_compat=0 / constrained_intra=0 / bframes=11 / b_pyramid=2 / b_adapt=2 / b_bias=0 / direct=1 / weightb=1 / open_gop=0 / weightp=2 / keyint=230 / keyint_min=23 / scenecut=40 / intra_refresh=0 / rc_lookahead=40 / rc=crf / mbtree=0 / crf=19.0 / qcomp=0.60 / qpmin=0 / qpmax=69 / qpstep=4 / vbv_maxrate=40000 / vbv_bufsize=50000 / crf_max=0.0 / nal_hrd=none / filler=0 / ip_ratio=1.40 / pb_ratio=1.30 / aq=1:1.00
Язык : English
Default : Да
Forced : Нет
DURATION : 01:48:58.532000000
NUMBER_OF_FRAMES : 156768
NUMBER_OF_BYTES : 1669370811
_STATISTICS_WRITING_APP : mkvmerge v8.2.0 ('World of Adventure') 64bit
_STATISTICS_WRITING_DATE_UTC : 2015-07-20 12:43:22
_STATISTICS_TAGS : BPS DURATION NUMBER_OF_FRAMES NUMBER_OF_BYTES

Аудио #1
Идентификатор : 2
Формат : AC-3
Формат/Информация : Audio Coding 3
Расширение режима : CM (complete main)
Параметр Endianness формата : Big
Идентификатор кодека : A_AC3
Продолжительность : 1 ч. 48 м.
Вид битрейта : Постоянный
Битрейт : 448 Кбит/сек
Каналы : 6 каналов
Расположение каналов : Front: L C R, Side: L R, LFE
Частота : 48,0 КГц
Метод сжатия : С потерями
Размер потока : 349 Мбайт (13%)
Заголовок : DUB
Язык : Russian
Default : Да
Forced : Нет

Аудио #2
Идентификатор : 3
Формат : AC-3
Формат/Информация : Audio Coding 3
Расширение режима : CM (complete main)
Параметр Endianness формата : Big
Идентификатор кодека : A_AC3
Продолжительность : 1 ч. 48 м.
Вид битрейта : Постоянный
Битрейт : 448 Кбит/сек
Каналы : 6 каналов
Расположение каналов : Front: L C R, Side: L R, LFE
Частота : 48,0 КГц
Метод сжатия : С потерями
Размер потока : 349 Мбайт (13%)
Заголовок : AVO (Андрей Гаврилов)
Язык : Russian
Default : Нет
Forced : Нет

Аудио #3
Идентификатор : 4
Формат : AC-3
Формат/Информация : Audio Coding 3
Расширение режима : CM (complete main)
Параметр Endianness формата : Big
Идентификатор кодека : A_AC3
Продолжительность : 1 ч. 48 м.
Вид битрейта : Постоянный
Битрейт : 448 Кбит/сек
Каналы : 6 каналов
Расположение каналов : Front: L C R, Side: L R, LFE
Частота : 48,0 КГц
Метод сжатия : С потерями
Размер потока : 349 Мбайт (13%)
Заголовок : Original
Язык : English
Default : Нет
Forced : Нет

Текст
Идентификатор : 5
Формат : UTF-8
Идентификатор кодека : S_TEXT/UTF8
Идентификатор кодека/Информация : UTF-8 Plain Text
Заголовок : английский
Язык : English
Default : Нет
Forced : Нет
piratbit.org



Скачать Идеальный незнакомец через торрент http://i72.fastpic.ru/big/2015/0720/8c/287c73b841e82f4a12a1957c9c7b328c.jpg Скачать фильм Идеальный незнакомец через торрент бесплантно в хорошем качестве Описание: Когда журналистка Ровена Прайс, занимающаяся расследованием убийства своей подруги, узнаёт, что к нему может быть причастен ... 10 10 4
Торрент: Зарегистрирован [2015-07-20 14:36] · скачан: 240 раз
Статус: √ проверено
Размер: 2.58 GB
Как cкачать? Как скачать Идеальный незнакомец через торрент | qTorrent

% Раздел Тема Автор DL S | L
Фильмы [HD 720p, 1080p] (Хороший звук DUB, MVO) [ 13.86 GB ] Идеальный незнакомец / Perfect stranger [2007 BDRip 1080p] DUB + AVO - KORSAR kisa1980 Скачать
1 | 0
Фильмы [HD 720p, 1080p] (Хороший звук DUB, MVO) [ 11.03 GB ] Идеальный незнакомец / Perfect stranger [2007 BDRip 1080p by msltel] DUB AVO msltel Скачать
1 | 0
Фильмы [HD 720p, 1080p] (Хороший звук DUB, MVO) [ 4.16 GB ] Идеальный незнакомец / Perfect stranger [2007 BDRip 720p by msltel] DUB AVO msltel Скачать
1 | 0

28-11-2019 20:33  

Отключить всю рекламу на сайте

    Дорогой пользователь! Огромная просьба, поблагодарите релизера, оцените раздачу и оставьте свои комментарий, если Вы скачали Идеальный незнакомец через торрент бесплатно! Внесите свою лепту в развитие PiratBit!
    Комментировать посты могут только пользователи прошедшие не сложную регистрацию
    Показать сообщения:    

    Идеальный незнакомец через торрент
    Скачать бесплатно Идеальный незнакомец
    Идеальный незнакомец скачать торрент
    Идеальный незнакомец смотреть онлайн
    Cкачать фильм Идеальный незнакомец бесплатно
    Идеальный незнакомец скачать торрент в хорошем качестве
    Идеальный незнакомец смотреть онлайн бесплатно в хорошем качестве


    Вы не можете начинать темы
    Вы не можете отвечать на сообщения
    Вы не можете редактировать свои сообщения
    Вы не можете удалять свои сообщения
    Вы не можете голосовать в опросах
    Вы не можете прикреплять файлы к сообщениям
    Вы можете скачивать файлы