Доктор Стрэндж

Лицензия

Добыча

Дубляж

Дом дракона

1 сезон

Тор

Дубляж

В эфире

Дубляж

Там, где раки поют

MVO

Властелин колец

1 сезон

Ultimate

pack

Рекомендуем

30

Пиратка

ВАЖНО

ВАЖНО

Ghostwire

Пиратка

jed

RePack

nioh2

RePack

RDR2

RePack

NEED FOR SPEED™ PAYBACK

RePack

скачать торрент

Кинопоиск HD

Острые козырьки 6 сезон

6 сезон

FAR CRY 6

RePack

скачать торрент

Лицензия

скачать торрент

MVO

1

1 сезон

скачать торрент

1 сезон

скачать торрент

Лицензия

  

Страница 8 / Page Eight (Дэвид Хэа) [2011, детектив, драма, BDRip 1080p ] 2 x VO

Страница 8 через торрент piratbit.org

Размер: 8.38 GB | Добавлен: 7 лет 4 мес. назад | Торрент скачан:20 раз
Смотреть онлайн | Скачать   

26-07-2015 06:52 Страница 8 Скачать торрент  

Название: Страница 8
Оригинальное название: Page Eight
Год выпуска: 2011
Страна: Великобритания
Жанр: детектив, драма
Продолжительность: 01:43:20
Перевод: любительский одноголосый

Режиссёр: Дэвид Хэа

В ролях: Билл Найи, Рэйчел Вайз, Том Хьюз, Майкл Гэмбон, Джуди Дэвис, Ракхи Тхакрар, Саския Ривз, Юэн Бремнер, Фелисити Джонс, Ричард Линтерн, Холли Аирд, Эндрю Кливер, Кейт Бёрдетт, Рэйф Файнс, Элис Крайдж, Рори Моррисон, Эшлин Лофтус, Брюс Майерс, Сурендра Кочар, Шарлотта Грин, Марта Келлер, Биджан Данешманд, Джей Бенедикт, Джеймс МакАрдл, Крисс Досанж, Хайвел Морган, Пиппа Андре, Дикси Арнольд, Грег Беннетт, Кен Бирк, Билли Холлидей, Саймон Стиггэлл, Роберт Торетто, Лестер Янг

Описание: Первый фильм трилогии (Теркс и Кайкос, Солёное поле боя) о Джонни Уоррикере - офицере разведки MI5. Неожиданная встреча на лестничной клетке с приятной молодой Ненси Пирпен кажется агенту секретной службы не случайной. Однако его больше беспокоит другая более серьёзная случайность: лучший друг и начальник Бенедикт Барон внезапно умирает, оставив тоненькую, но опасную папку с секретной информацией. Общаясь с завистниками, бывшими жёнами и дочерью, агент Уоррикер собирает информацию об угрожающем правительству документе и всё больше увлекается очаровательной соседкой... Триллер с немного детективным сюжетом периодически напоминает семейную драму, но только происходящую на высоком уровне и расцвеченную английским юмором.



Качество: BDRip 1080p Сравнение с исходником
Формат: MKV
Видео кодек: H.264
Аудио кодек: AC3, DTS
Видео: MPEG-4 AVC, 9159 Кбит/с, 1920x816, 23,976 кадра/с
Аудио 1: русский, AC3, 448 kbps, 2 ch, 48 kHz [любительский одноголосый, Семён Ващенко]
Аудио 2: русский, AC3, 256 kbps, 2 ch, 48 kHz [любительский одноголосый, Гундос]
Аудио 3: английский, DTS, 1509 kbps, 2 ch, 48 kHz [оригинал]
Субтитры 1: русские (SemiIsland)
Субтитры 2: английские
Золотой глобус, 2012 год
Номинации (1):
Лучший актёр мини-сериала или фильма на ТВ (Билл Найи)

Эмми, 2012 год
Номинации (1):
Лучшая женская роль второго плана в мини-сериале или телефильме (Джуди Дэвис)
Общее
Уникальный идентификатор : 230705574563414675314119329530971689226 (0xAD9047063BEB8D29A6A0BB0AE750110A)
Полное имя : D:VideoСтраница 8.2011.BDRip.1080p.mkv
Формат : Matroska
Версия формата : Version 4 / Version 2
Размер файла : 8,38 Гбайт
Продолжительность : 1 ч. 43 м.
Общий поток : 11,6 Мбит/сек
Название фильма : BDRip -- STarankov
Дата кодирования : UTC 2015-07-26 04:04:55
Программа кодирования : mkvmerge v8.2.0 ('World of Adventure') 64bit
Библиотека кодирования : libebml v1.3.1 + libmatroska v1.4.2
DURATION : 01:43:20.096000000
NUMBER_OF_FRAMES : 581259
NUMBER_OF_BYTES : 1169493172
_STATISTICS_WRITING_APP : mkvmerge v8.2.0 ('World of Adventure') 64bit
_STATISTICS_WRITING_DATE_UTC : 2015-07-26 04:04:55
_STATISTICS_TAGS : BPS DURATION NUMBER_OF_FRAMES NUMBER_OF_BYTES

Видео
Идентификатор : 1
Формат : AVC
Формат/Информация : Advanced Video Codec
Профиль формата : High@L4.1
Параметр CABAC формата : Да
Параметр ReFrames формата : 4 кадра
Идентификатор кодека : V_MPEG4/ISO/AVC
Продолжительность : 1 ч. 43 м.
Битрейт : 9159 Кбит/сек
Ширина : 1920 пикселей
Высота : 816 пикселей
Соотношение сторон : 2,35:1
Режим частоты кадров : Постоянный
Частота кадров : 23,976 кадра/сек
Цветовое пространство : YUV
Субдискретизация насыщенности : 4:2:0
Битовая глубина : 8 бит
Тип развёртки : Прогрессивная
Бит/(Пиксели*Кадры) : 0.244
Размер потока : 6,61 Гбайт (79%)
Библиотека кодирования : x264 core 146 r2538 121396c
Настройки программы : cabac=1 / ref=4 / deblock=1:-1:-1 / analyse=0x3:0x113 / me=umh / subme=10 / psy=1 / psy_rd=1.00:0.15 / mixed_ref=1 / me_range=32 / chroma_me=1 / trellis=2 / 8x8dct=1 / cqm=0 / deadzone=21,11 / fast_pskip=1 / chroma_qp_offset=-3 / threads=6 / lookahead_threads=1 / sliced_threads=0 / nr=0 / decimate=1 / interlaced=0 / bluray_compat=0 / constrained_intra=0 / bframes=10 / b_pyramid=2 / b_adapt=2 / b_bias=0 / direct=1 / weightb=1 / open_gop=0 / weightp=2 / keyint=230 / keyint_min=23 / scenecut=40 / intra_refresh=0 / rc_lookahead=40 / rc=crf / mbtree=0 / crf=17.0 / qcomp=0.60 / qpmin=0 / qpmax=69 / qpstep=4 / vbv_maxrate=40000 / vbv_bufsize=50000 / crf_max=0.0 / nal_hrd=none / filler=0 / ip_ratio=1.40 / pb_ratio=1.30 / aq=1:1.00
Язык : English
Default : Да
Forced : Нет
DURATION : 01:43:20.153000000
NUMBER_OF_FRAMES : 148655
NUMBER_OF_BYTES : 7275168404
_STATISTICS_WRITING_APP : mkvmerge v8.2.0 ('World of Adventure') 64bit
_STATISTICS_WRITING_DATE_UTC : 2015-07-26 04:04:55
_STATISTICS_TAGS : BPS DURATION NUMBER_OF_FRAMES NUMBER_OF_BYTES

Аудио #1
Идентификатор : 2
Формат : AC-3
Формат/Информация : Audio Coding 3
Расширение режима : CM (complete main)
Параметр Endianness формата : Big
Идентификатор кодека : A_AC3
Продолжительность : 1 ч. 43 м.
Вид битрейта : Постоянный
Битрейт : 448 Кбит/сек
Каналы : 2 канала
Расположение каналов : Front: L R
Частота : 48,0 КГц
Метод сжатия : С потерями
Размер потока : 331 Мбайт (4%)
Заголовок : VO (Семён Ващенко)
Язык : Russian
Default : Да
Forced : Нет

Аудио #2
Идентификатор : 3
Формат : AC-3
Формат/Информация : Audio Coding 3
Расширение режима : CM (complete main)
Параметр Endianness формата : Big
Идентификатор кодека : A_AC3
Продолжительность : 1 ч. 43 м.
Вид битрейта : Постоянный
Битрейт : 256 Кбит/сек
Каналы : 2 канала
Расположение каналов : Front: L R
Частота : 48,0 КГц
Метод сжатия : С потерями
Размер потока : 189 Мбайт (2%)
Заголовок : VO (Гундос)
Язык : Russian
Default : Нет
Forced : Нет

Аудио #3
Идентификатор : 4
Формат : DTS
Формат/Информация : Digital Theater Systems
Режим : 16
Параметр Endianness формата : Big
Идентификатор кодека : A_DTS
Продолжительность : 1 ч. 43 м.
Вид битрейта : Постоянный
Битрейт : 1509 Кбит/сек
Каналы : 2 канала
Расположение каналов : Front: L R
Частота : 48,0 КГц
Битовая глубина : 16 бит
Метод сжатия : С потерями
Размер потока : 1,09 Гбайт (13%)
Заголовок : Original
Язык : English
Default : Нет
Forced : Нет

Текст #1
Идентификатор : 5
Формат : UTF-8
Идентификатор кодека : S_TEXT/UTF8
Идентификатор кодека/Информация : UTF-8 Plain Text
Заголовок : русский
Язык : Russian
Default : Нет
Forced : Нет

Текст #2
Идентификатор : 6
Формат : UTF-8
Идентификатор кодека : S_TEXT/UTF8
Идентификатор кодека/Информация : UTF-8 Plain Text
Заголовок : английский
Default : Нет
Forced : Нет



Скачать Страница 8 через торрент http://i70.fastpic.ru/big/2015/0722/e3/eb95683918334e53b2ca718839fe6fe3.jpg Скачать, смотреть онлайн Страница 8 бесплантно в хорошем качестве Описание: Первый фильм трилогии (Теркс и Кайкос, Солёное поле боя) о Джонни Уоррикере - офицере разведки MI Неожиданная встреча на ... 9.3 10 4
Info! Золотая раздача, скачанное не засчитывается.
Торрент: Зарегистрирован [2015-07-26 06:52] · скачан: 20 раз
Статус: √ проверено
Размер: 8.38 GB
Как cкачать? Как скачать Страница 8 через торрент | UTorrent

% Раздел Тема Автор DL S | L
Фильмы [HD 720p, 1080p] (Звук Cam, VO, DVO) [ 2.67 GB ] Страница 8 / Page Eight | | 720p msltel Скачать
1 | 0
Фильмы 2011 [ 1.78 GB ] Страница 8 / Page Eight | | BDRip AVC msltel Скачать
1 | 0

28-11-2019 20:33  


Отключить вcю реклaмy на сайте, в т.ч. и в плеере онлайн просмотра!

    Дорогой пользователь! Огромная просьба, поблагодарите релизера, оцените раздачу и оставьте свои комментарий, если Вы скачали Страница 8 через торрент бесплатно!!
    Комментировать посты могут только пользователи прошедшие не сложную регистрацию
    Показать сообщения:    


    Страница 8 через торрент
    Скачать бесплатно Страница 8
    Страница 8 скачать торрент
    Страница 8 смотреть онлайн
    Cкачать фильм Страница 8 бесплатно
    Страница 8 скачать торрент в хорошем качестве
    Страница 8 смотреть онлайн бесплатно в хорошем качестве
    Вы не можете начинать темы
    Вы не можете отвечать на сообщения
    Вы не можете редактировать свои сообщения
    Вы не можете удалять свои сообщения
    Вы не можете голосовать в опросах
    Вы не можете прикреплять файлы к сообщениям
    Вы можете скачивать файлы
    Страница 8 / Page Eight [2011, детектив, драма, BDRip 1080p ] 2 x VO смотреть онлайн, скачать торрент picoco.icu