Доктор Стрэндж

Лицензия

Добыча

Дубляж

Уэнсдэй

1 сезон

Тор

Дубляж

В эфире

Дубляж

Там, где раки поют

MVO

Властелин колец

1 сезон

Deluxe

pack

Рекомендуем

30

Пиратка

ВАЖНО

ВАЖНО

Ghostwire

Пиратка

jed

RePack

nioh2

RePack

RDR2

RePack

NEED FOR SPEED™ PAYBACK

RePack

скачать торрент

Кинопоиск HD

Острые козырьки 6 сезон

6 сезон

FAR CRY 6

RePack

скачать торрент

Лицензия

скачать торрент

MVO

1

1 сезон

скачать торрент

1 сезон

скачать торрент

Лицензия

  

Теркс и Кайкос / Turks & Caicos (Дэвид Хэа) [2014, боевик, триллер, драма, детектив, BDRip 720p ] VO

Теркс и Кайкос через торрент piratbit.org

Размер: 3.04 GB | Добавлен: 7 лет 4 мес. назад | Торрент скачан:26 раз
Смотреть онлайн | Скачать   

26-07-2015 08:36 Теркс и Кайкос Скачать торрент  

Название: Теркс и Кайкос
Оригинальное название: Turks & Caicos
Год выпуска: 2014
Страна: Великобритания
Жанр: боевик, триллер, драма, детектив
Продолжительность: 01:39:22
Перевод: любительский одноголосый

Режиссёр: Дэвид Хэа

В ролях: Билл Найи, Вайнона Райдер, Кристофер Уокен, Гензель Пайпер, Дилан Бэйкер, Джеймс Нафтон, Зак Гренье, Джули Хьюлетт, Хелена Бонем Картер, Руперт Грейвз, Сэлли Гринвуд, Юэн Бремнер, Мэлик Йоба, Кобна Холдбрук-Смит, Мередит Итон, Рэйф Файнс, Ник Дональд

Описание: После событий в первом фильме «Страница 8» офицер британской контрразведки Джонни Уоррикер залёг на дно, обитая на островах Теркс и Кайкос в Карибском море. Однажды с ним на связь выходит агент ЦРУ, из-за которого Уоррикер окажется в компании сомнительных американских бизнесменов. На утро одного из них найдут мёртвым, а в деле снова окажется замешан британский премьер-минист Алек Бизли...



Качество: BDRip 720p Сравнение с исходником
Формат: MKV
Видео кодек: H.264
Аудио кодек: AC3
Видео: MPEG-4 AVC, 3394 Кбит/с, 1280x536, 23,976 кадра/с
Аудио 1: русский, AC3, 448 kbps, 2 ch, 48 kHz [любительский одноголосый, Семён Ващенко]
Аудио 2: английский, AC3, 448 kbps, 6 ch, 48 kHz [оригинал]
Общее
Уникальный идентификатор : 238529428175389293809445389355167809772 (0xB37318CA1DD9EF37B5416B5B42A880EC)
Полное имя : D:VideoТеркс и Кайкос.2014.BDRip.720p.mkv
Формат : Matroska
Версия формата : Version 4 / Version 2
Размер файла : 3,04 Гбайт
Продолжительность : 1 ч. 39 м.
Общий поток : 4377 Кбит/сек
Название фильма : BDRip -- STarankov
Дата кодирования : UTC 2015-07-26 05:02:21
Программа кодирования : mkvmerge v8.2.0 ('World of Adventure') 64bit
Библиотека кодирования : libebml v1.3.1 + libmatroska v1.4.2
DURATION : 01:39:20.384000000
NUMBER_OF_FRAMES : 186262
NUMBER_OF_BYTES : 333781504
_STATISTICS_WRITING_APP : mkvmerge v8.2.0 ('World of Adventure') 64bit
_STATISTICS_WRITING_DATE_UTC : 2015-07-26 05:02:21
_STATISTICS_TAGS : BPS DURATION NUMBER_OF_FRAMES NUMBER_OF_BYTES

Видео
Идентификатор : 1
Формат : AVC
Формат/Информация : Advanced Video Codec
Профиль формата : High@L4.1
Параметр CABAC формата : Да
Параметр ReFrames формата : 9 кадров
Идентификатор кодека : V_MPEG4/ISO/AVC
Продолжительность : 1 ч. 39 м.
Битрейт : 3394 Кбит/сек
Ширина : 1280 пикселей
Высота : 536 пикселей
Соотношение сторон : 2,40:1
Режим частоты кадров : Постоянный
Частота кадров : 23,976 кадра/сек
Цветовое пространство : YUV
Субдискретизация насыщенности : 4:2:0
Битовая глубина : 8 бит
Тип развёртки : Прогрессивная
Бит/(Пиксели*Кадры) : 0.206
Размер потока : 2,36 Гбайт (78%)
Библиотека кодирования : x264 core 146 r2538 121396c
Настройки программы : cabac=1 / ref=9 / deblock=1:-1:-1 / analyse=0x3:0x113 / me=umh / subme=10 / psy=1 / psy_rd=1.00:0.15 / mixed_ref=1 / me_range=32 / chroma_me=1 / trellis=2 / 8x8dct=1 / cqm=0 / deadzone=21,11 / fast_pskip=1 / chroma_qp_offset=-3 / threads=6 / lookahead_threads=1 / sliced_threads=0 / nr=0 / decimate=1 / interlaced=0 / bluray_compat=0 / constrained_intra=0 / bframes=8 / b_pyramid=2 / b_adapt=2 / b_bias=0 / direct=1 / weightb=1 / open_gop=0 / weightp=2 / keyint=230 / keyint_min=23 / scenecut=40 / intra_refresh=0 / rc_lookahead=40 / rc=crf / mbtree=0 / crf=18.7 / qcomp=0.60 / qpmin=0 / qpmax=69 / qpstep=4 / vbv_maxrate=40000 / vbv_bufsize=50000 / crf_max=0.0 / nal_hrd=none / filler=0 / ip_ratio=1.40 / pb_ratio=1.30 / aq=1:1.00
Язык : English
Default : Да
Forced : Нет
DURATION : 01:39:22.373000000
NUMBER_OF_FRAMES : 142954
NUMBER_OF_BYTES : 2593420207
_STATISTICS_WRITING_APP : mkvmerge v8.2.0 ('World of Adventure') 64bit
_STATISTICS_WRITING_DATE_UTC : 2015-07-26 05:02:21
_STATISTICS_TAGS : BPS DURATION NUMBER_OF_FRAMES NUMBER_OF_BYTES

Аудио #1
Идентификатор : 2
Формат : AC-3
Формат/Информация : Audio Coding 3
Расширение режима : CM (complete main)
Параметр Endianness формата : Big
Идентификатор кодека : A_AC3
Продолжительность : 1 ч. 39 м.
Вид битрейта : Постоянный
Битрейт : 448 Кбит/сек
Каналы : 2 канала
Расположение каналов : Front: L R
Частота : 48,0 КГц
Метод сжатия : С потерями
Размер потока : 318 Мбайт (10%)
Заголовок : VO (любительский одноголосый, Семён Ващенко)
Язык : Russian
Default : Да
Forced : Нет

Аудио #2
Идентификатор : 3
Формат : AC-3
Формат/Информация : Audio Coding 3
Расширение режима : CM (complete main)
Параметр Endianness формата : Big
Идентификатор кодека : A_AC3
Продолжительность : 1 ч. 39 м.
Вид битрейта : Постоянный
Битрейт : 448 Кбит/сек
Каналы : 6 каналов
Расположение каналов : Front: L C R, Side: L R, LFE
Частота : 48,0 КГц
Метод сжатия : С потерями
Размер потока : 318 Мбайт (10%)
Заголовок : Original
Язык : English
Default : Нет
Forced : Нет



Скачать Теркс и Кайкос через торрент http://i72.fastpic.ru/big/2015/0726/b0/bec75e3db116f238a77e10b6868ddfb0.jpg Скачать, смотреть онлайн Теркс и Кайкос бесплантно в хорошем качестве Описание: После событий в первом фильме «Страница 8» офицер британской контрразведки Джонни Уоррикер залёг на дно, обитая на островах Теркс ... 10 10 2
Торрент: Зарегистрирован [2015-07-26 08:36] · скачан: 26 раз
Статус: √ проверено
Размер: 3.04 GB
Как cкачать? Как скачать Теркс и Кайкос через торрент | UTorrent

% Раздел Тема Автор DL S | L
T Фильмы [HD 720p, 1080p] (Звук Cam, VO, DVO) [ 8.33 GB ] Теркс и Кайкос / Turks & Caicos | | 1080p msltel Скачать
1 | 0
Фильмы 2014 (Звук TS, Cam, VO, DVO) [ 1.45 GB ] Теркс и Кайкос / Turks & Caicos | | BDRip Newton5 Скачать
1 | 0
T Фильмы 2014 (Звук TS, Cam, VO, DVO) [ 1.94 GB ] Теркс и Кайкос / Turks & Caicos | | BDRip AVC msltel Скачать
1 | 0

28-11-2019 20:33  


Отключить вcю реклaмy на сайте, в т.ч. и в плеере онлайн просмотра!

    Дорогой пользователь! Огромная просьба, поблагодарите релизера, оцените раздачу и оставьте свои комментарий, если Вы скачали Теркс и Кайкос через торрент бесплатно!!
    Комментировать посты могут только пользователи прошедшие не сложную регистрацию
    Показать сообщения:    


    Теркс и Кайкос через торрент
    Скачать бесплатно Теркс и Кайкос
    Теркс и Кайкос скачать торрент
    Теркс и Кайкос смотреть онлайн
    Cкачать фильм Теркс и Кайкос бесплатно
    Теркс и Кайкос скачать торрент в хорошем качестве
    Теркс и Кайкос смотреть онлайн бесплатно в хорошем качестве
    Вы не можете начинать темы
    Вы не можете отвечать на сообщения
    Вы не можете редактировать свои сообщения
    Вы не можете удалять свои сообщения
    Вы не можете голосовать в опросах
    Вы не можете прикреплять файлы к сообщениям
    Вы можете скачивать файлы
    Теркс и Кайкос / Turks & Caicos [2014, боевик, триллер, драма, детектив, BDRip 720p ] VO смотреть онлайн, скачать торрент picoco.icu