Присоединяйтесь к нам в Telegram!, здесь всегда актуальный адрес сайта, оперативная поддержка и многое другое!!

>

5.9

iTunes

7.4

iTunes

9.4

1 сезон

1

7.4

2 сезон

7.2

iTunes

7.3

1 сезон

13

6.1

iTunes

8.3

Пиратка

30

ULTIMATE

pack

9.9

Лицензия

ВАЖНО

ИГРА 18+

pack

7.3

RePack

MK11

7.7

RePack

jed

7.8

RePack

fifa19

8.5

RePack

RDR2

RePack

NEED FOR SPEED™ PAYBACK

5 сезон

9 сезон

Бесстыжие 9 сезон

Все сериалы

все сериалы на PB.wtf

RePack

FAR CRY 5

Anonymous, доброй ночи, мы катастрофически не успеваем собрать деньги на оплату серверов, помогите нам пожалуйста 5,10,15р., для нас важна любая помощь . В качестве благодарности мы отключим Вам всю рекламу на сайте (укажите свой ник в строку Ваше имя)!

×
  
Magnet ссылка

Приложение / I-Lived (Франк Халфун) [2015, триллер, детектив, HDRip] MVO piratbit.org

Приложение через торрент piratbit.org

Размер: 1.25 GB | Добавлен: 6 лет 4 мес. назад | Торрент скачан:305 раз
Смотреть онлайн Приложение | Скачать    Ребята, помогите собрать деньги на оплату серверов!!!

26-07-2015 13:25 Приложение Скачать торрент  

Приложение / I-Lived

Год выпуска: 2015
Страна: США
Жанр: триллер, детектив
Продолжительность: 01:36:35
Перевод: Любительский (многоголосый)
Режиссер: Франк Халфун
В ролях: Сара Пауэр (Greta), Шеннон Коллис (Drunk Girl), Франк Халфун (Detective McQuee, озвучка), Джен Броберг (Josh's Mom), Джош Коудери (Executive #2), Элейн Партнау (Mrs. Lee), Луис Фернандес-Хиль (Roberto Luis), Рон Резник (Executive #1), Jeremiah Watkins (Josh), Том Пэйтон (Zach), Корал Майклс (Kidnap Girl), Майя Милетич (Genny)
Описание:
Джош - блоггер и обозреватель приложений для смартфонов. Однажды ему предлагают протестировать новое приложение. Суть приложения в выполнении заданий из реальной жизни, за что потом начисляются поощрительные баллы. Как ни странно, приложении работало. Джош успешно выполнял разные задания на темы: «здоровое питание», «вежливость», «упорство», «ловкость». В то же самое время он заметил, как изменилась его реальная жизнь. Ему предложили выгодную работу, он выиграл в покер, его больной отец пошел на поправку, но самое необычное - он начал встречаться с девушкой, о которой раньше и мечтать не мог. Он с удовольствием советовал приложение друзьям. Однако скоро задания стали более злыми: «ударь кого-нибудь», «укради деньги». Джош уже был слишком увлечен происходящим, чтобы остановиться на этом...

Качество: HDRip
Формат: AVI
Видео кодек: XviD
Аудио кодек: AC3
Видео: XviD, 720x400 (16:9), 1461 kbps, 23,976 fps, 0,212 bpp
Аудио: AC3 / 5.1 / 48 kHz / 384 kbps / 16 bit

Код:

General
Complete name                            : E:\торент\I-Lived.2015.HDRip.avi
Format                                   : AVI
Format/Info                              : Audio Video Interleave
File size                                : 1.25 GiB
Duration                                 : 1h 36mn
Overall bit rate                         : 1 855 Kbps
Movie name                               : I-Lived.2015.HDRip.XviD.AC3
Writing application                      : VirtualDubMod 1.5.10.2 (build 2540/release)
Writing library                          : VirtualDubMod build 2540/release
Comment                                  : I-Lived.2015.HDRip.XviD.AC3

Video
ID                                       : 0
Format                                   : MPEG-4 Visual
Format profile                           : Simple@L5
Format settings, BVOP                    : No
Format settings, QPel                    : No
Format settings, GMC                     : No warppoints
Format settings, Matrix                  : Default (H.263)
Codec ID                                 : XVID
Codec ID/Hint                            : XviD
Duration                                 : 1h 36mn
Bit rate                                 : 1 461 Kbps
Width                                    : 720 pixels
Height                                   : 400 pixels
Display aspect ratio                     : 16:9
Frame rate                               : 23.976 fps
Color space                              : YUV
Chroma subsampling                       : 4:2:0
Bit depth                                : 8 bits
Scan type                                : Progressive
Compression mode                         : Lossy
Bits/(Pixel*Frame)                       : 0.212
Stream size                              : 1 010 MiB (79%)
Writing library                          : Lavc56.20.100

Audio
ID                                       : 1
Format                                   : AC-3
Format/Info                              : Audio Coding 3
Mode extension                           : CM (complete main)
Codec ID                                 : 2000
Duration                                 : 1h 36mn
Bit rate mode                            : Constant
Bit rate                                 : 384 Kbps
Channel(s)                               : 6 channels
Channel positions                        : Front: L C R, Side: L R, LFE
Sampling rate                            : 48.0 KHz
Bit depth                                : 16 bits
Compression mode                         : Lossy
Stream size                              : 265 MiB (21%)
Alignment                                : Split accross interleaves
Interleave, duration                     : 42 ms (1.00 video frame)
Interleave, preload duration             : 500 ms
Title                                    : Русская.MVO.Blithe@fazerevil@qwerty

piratbit.org



Скачать Приложение через торрент https://pic1.kartinco.top/images/10/ofqbf.jpg Скачать, смотреть онлайн Приложение бесплантно в хорошем качестве Описание: Джош - блоггер и обозреватель приложений для смартфонов. Однажды ему предлагают протестировать новое приложение. Суть приложения ... 9.8 10 12
Торрент: Зарегистрирован [2015-07-26 13:25] · скачан: 305 раз
Статус: T временная
Размер: 1.25 GB
Как cкачать? Как скачать Приложение через торрент | UTorrent



Последний раз редактировалось: Newton5 (2015-07-28 09:26), всего редактировалось 2 раз(а)

28-11-2019 20:33  

Отключить всю рекламу на сайте

26-07-2015 13:32 Приложение Скачать торрент  

СПС, глянем на досуген...piratbit.org



27-07-2015 18:26 Приложение Скачать торрент  

В медиа инфо реклама стороннего ресурса,разве так можно тем более модератору.Указано I-Lived.2015.WEB-DL.XviD в описании HDRip,чей перевод?piratbit.org



28-07-2015 12:19 Приложение Скачать торрент  

Перевод................жуть лучше бы он был одноголосный. чем такой((( Сам фильм глянуть можно тема уже знакома но если делать не чего то смотреть можно........но с другим переводом :pleasantry:piratbit.org



    Дорогой пользователь! Огромная просьба, поблагодарите релизера, оцените раздачу и оставьте свои комментарий, если Вы скачали Приложение через торрент бесплатно!
    Комментировать посты могут только пользователи прошедшие не сложную регистрацию
    Показать сообщения:    

    Приложение через торрент
    Скачать бесплатно Приложение
    Приложение скачать торрент
    Приложение смотреть онлайн
    Cкачать фильм Приложение бесплатно
    Приложение скачать торрент в хорошем качестве
    Приложение смотреть онлайн бесплатно в хорошем качестве


    Вы не можете начинать темы
    Вы не можете отвечать на сообщения
    Вы не можете редактировать свои сообщения
    Вы не можете удалять свои сообщения
    Вы не можете голосовать в опросах
    Вы не можете прикреплять файлы к сообщениям
    Вы можете скачивать файлы