Доктор Стрэндж

Лицензия

Добыча

Дубляж

Дом дракона

1 сезон

Тор

Дубляж

В эфире

Дубляж

Там, где раки поют

MVO

Властелин колец

1 сезон

Ultimate

pack

Рекомендуем

30

Пиратка

ВАЖНО

ВАЖНО

Ghostwire

Пиратка

jed

RePack

nioh2

RePack

RDR2

RePack

NEED FOR SPEED™ PAYBACK

RePack

скачать торрент

Кинопоиск HD

Острые козырьки 6 сезон

6 сезон

FAR CRY 6

RePack

скачать торрент

Лицензия

скачать торрент

MVO

1

1 сезон

скачать торрент

1 сезон

скачать торрент

Лицензия

  

Солёное поле боя / Salting the Battlefield (Дэвид Хэа) [2014, драма, криминал, детектив, BDRip 1080p ] VO

Солёное поле боя через торрент piratbit.org

Размер: 9.47 GB | Добавлен: 7 лет 4 мес. назад | Торрент скачан:11 раз
Смотреть онлайн | Скачать   

27-07-2015 11:01 Солёное поле боя Скачать торрент  

Название: Солёное поле боя
Оригинальное название: Salting the Battlefield
Год выпуска: 2014
Страна: Великобритания
Жанр: драма, криминал, детектив
Продолжительность: 01:36:44
Перевод: любительский одноголосый

Режиссёр: Дэвид Хэа

В ролях: Рэйф Файнс, Анна Бёгер, Шазад Латиф, Фелисити Джонс, Джеймс МакАрдл, Билл Найи, Саския Ривз, Дэниэл Райан, Лиэнн Бест, Джуди Дэвис, Хелена Бонем Картер, Юэн Бремнер, Оливия Уильямс, Кейт Бёрдетт, Руперт Грейвз, Георг Ленц, Пип Картер, Сан Шелла, Марк Уингетт, Ричард Лоуренс, Малкольм Синклер, Валерия Веро, Ласко Аткинс, Джон Дагган, Торстон Мандерлей

Описание: В центре сюжета детективной драмы два спецагента Джонни Уоррикер и Марго Тирел, которые находятся в Европе в бегах. По их следу идёт МИ-6. Они понимают, что так не может продолжаться всю жизнь и осознают, что их вот-вот могут обнаружить. Единственный способ разрешить эту дилемму — это вернуться в Великобританию и встретиться с премьер-министром... Третий фильм (Страница 8, Теркс и Кайкос) трилогии о Джонни Уоррикере - офицере разведки MI5.



Качество: BDRip 1080p Сравнение с исходником
Формат: MKV
Видео кодек: H.264
Аудио кодек: AC3, DTS
Видео: MPEG-4 AVC, 11.8 Mбит/с, 1920x804, 23,976 кадра/с
Аудио 1: русский, AC3, 448 kbps, 2 ch, 48 kHz [любительский одноголосый, Семён Ващенко]
Аудио 2: английский, DTS, 1509 kbps, 6 ch, 48 kHz [оригинал]
Общее
Уникальный идентификатор : 197279088583116744660786089328732989219 (0x946A920669E58472BE071C6C3BAAE723)
Полное имя : D:VideoСолёное поле боя.2014.BDRip.1080p.mkv
Формат : Matroska
Версия формата : Version 4 / Version 2
Размер файла : 9,47 Гбайт
Продолжительность : 1 ч. 36 м.
Общий поток : 14,0 Мбит/сек
Название фильма : BDRip -- STarankov
Дата кодирования : UTC 2015-07-27 07:58:49
Программа кодирования : mkvmerge v8.2.0 ('World of Adventure') 64bit
Библиотека кодирования : libebml v1.3.1 + libmatroska v1.4.2
DURATION : 01:36:44.843000000
NUMBER_OF_FRAMES : 544204
NUMBER_OF_BYTES : 1094938804
_STATISTICS_WRITING_APP : mkvmerge v8.2.0 ('World of Adventure') 64bit
_STATISTICS_WRITING_DATE_UTC : 2015-07-27 07:58:49
_STATISTICS_TAGS : BPS DURATION NUMBER_OF_FRAMES NUMBER_OF_BYTES

Видео
Идентификатор : 1
Формат : AVC
Формат/Информация : Advanced Video Codec
Профиль формата : High@L4.1
Параметр CABAC формата : Да
Параметр ReFrames формата : 4 кадра
Идентификатор кодека : V_MPEG4/ISO/AVC
Продолжительность : 1 ч. 36 м.
Битрейт : 11,8 Мбит/сек
Ширина : 1920 пикселей
Высота : 804 пикселя
Соотношение сторон : 2,40:1
Режим частоты кадров : Постоянный
Частота кадров : 23,976 кадра/сек
Цветовое пространство : YUV
Субдискретизация насыщенности : 4:2:0
Битовая глубина : 8 бит
Тип развёртки : Прогрессивная
Бит/(Пиксели*Кадры) : 0.318
Размер потока : 7,96 Гбайт (84%)
Библиотека кодирования : x264 core 146 r2538 121396c
Настройки программы : cabac=1 / ref=4 / deblock=1:-1:-1 / analyse=0x3:0x113 / me=umh / subme=10 / psy=1 / psy_rd=1.00:0.15 / mixed_ref=1 / me_range=32 / chroma_me=1 / trellis=2 / 8x8dct=1 / cqm=0 / deadzone=21,11 / fast_pskip=1 / chroma_qp_offset=-3 / threads=6 / lookahead_threads=1 / sliced_threads=0 / nr=0 / decimate=1 / interlaced=0 / bluray_compat=0 / constrained_intra=0 / bframes=9 / b_pyramid=2 / b_adapt=2 / b_bias=0 / direct=1 / weightb=1 / open_gop=0 / weightp=2 / keyint=230 / keyint_min=23 / scenecut=40 / intra_refresh=0 / rc_lookahead=40 / rc=crf / mbtree=0 / crf=18.0 / qcomp=0.60 / qpmin=0 / qpmax=69 / qpstep=4 / vbv_maxrate=40000 / vbv_bufsize=50000 / crf_max=0.0 / nal_hrd=none / filler=0 / ip_ratio=1.40 / pb_ratio=1.30 / aq=1:1.00
Язык : English
Default : Да
Forced : Нет
DURATION : 01:36:44.049000000
NUMBER_OF_FRAMES : 139158
NUMBER_OF_BYTES : 8743148467
_STATISTICS_WRITING_APP : mkvmerge v8.2.0 ('World of Adventure') 64bit
_STATISTICS_WRITING_DATE_UTC : 2015-07-27 07:58:49
_STATISTICS_TAGS : BPS DURATION NUMBER_OF_FRAMES NUMBER_OF_BYTES

Аудио #1
Идентификатор : 2
Формат : AC-3
Формат/Информация : Audio Coding 3
Расширение режима : CM (complete main)
Параметр Endianness формата : Big
Идентификатор кодека : A_AC3
Продолжительность : 1 ч. 36 м.
Вид битрейта : Постоянный
Битрейт : 448 Кбит/сек
Каналы : 2 канала
Расположение каналов : Front: L R
Частота : 48,0 КГц
Метод сжатия : С потерями
Размер потока : 310 Мбайт (3%)
Заголовок : VO (любительский одноголосый, Семён Ващенко)
Язык : Russian
Default : Да
Forced : Нет

Аудио #2
Идентификатор : 3
Формат : DTS
Формат/Информация : Digital Theater Systems
Режим : 16
Параметр Endianness формата : Big
Идентификатор кодека : A_DTS
Продолжительность : 1 ч. 36 м.
Вид битрейта : Постоянный
Битрейт : 1509 Кбит/сек
Каналы : 6 каналов
Расположение каналов : Front: L C R, Side: L R, LFE
Частота : 48,0 КГц
Битовая глубина : 16 бит
Метод сжатия : С потерями
Размер потока : 1,02 Гбайт (11%)
Заголовок : Original
Язык : English
Default : Нет
Forced : Нет



Скачать Солёное поле боя через торрент http://i72.fastpic.ru/big/2015/0726/00/1ee3b5f2e983e9fd3d86afeb085a2700.jpg Скачать, смотреть онлайн Солёное поле боя бесплантно в хорошем качестве Описание: В центре сюжета детективной драмы два спецагента Джонни Уоррикер и Марго Тирел, которые находятся в Европе в бегах. По их следу ... 10 10 1
Торрент: Зарегистрирован [2015-07-27 11:01] · скачан: 11 раз
Статус: √ проверено
Размер: 9.47 GB
Как cкачать? Как скачать Солёное поле боя через торрент | UTorrent

% Раздел Тема Автор DL S | L
Фильмы [HD 720p, 1080p] (Звук Cam, VO, DVO) [ 3.32 GB ] Солёное поле боя / Salting the Battlefield | | 720p msltel Скачать
1 | 0
Фильмы 2014 (Звук TS, Cam, VO, DVO) [ 2 GB ] Солёное поле боя / Salting the Battlefield | | BDRip AVC msltel Скачать
1 | 0

28-11-2019 20:33  


Отключить вcю реклaмy на сайте, в т.ч. и в плеере онлайн просмотра!

    Дорогой пользователь! Огромная просьба, поблагодарите релизера, оцените раздачу и оставьте свои комментарий, если Вы скачали Солёное поле боя через торрент бесплатно!!
    Комментировать посты могут только пользователи прошедшие не сложную регистрацию
    Показать сообщения:    


    Солёное поле боя через торрент
    Скачать бесплатно Солёное поле боя
    Солёное поле боя скачать торрент
    Солёное поле боя смотреть онлайн
    Cкачать фильм Солёное поле боя бесплатно
    Солёное поле боя скачать торрент в хорошем качестве
    Солёное поле боя смотреть онлайн бесплатно в хорошем качестве
    Вы не можете начинать темы
    Вы не можете отвечать на сообщения
    Вы не можете редактировать свои сообщения
    Вы не можете удалять свои сообщения
    Вы не можете голосовать в опросах
    Вы не можете прикреплять файлы к сообщениям
    Вы можете скачивать файлы
    Солёное поле боя / Salting the Battlefield [2014, драма, криминал, детектив, BDRip 1080p ] VO смотреть онлайн, скачать торрент picoco.icu