Лицензия

MVO

1

1 сезон

Лицензия

Лицензия

13

MVO

1 сезон

Deluxe Edition

pack

Рекомендуем

30

Repack

ВАЖНО

ВАЖНО

Ghostwire

RePack

jed

RePack

fifa19

RePack

RDR2

RePack

NEED FOR SPEED™ PAYBACK

RePack

Кинопоиск HD

 Острые козырьки 6 сезон

6 сезон

FAR CRY 6

RePack

Лицензия

MVO

1

1 сезон

1 сезон

Лицензия

  

Далекая невеста (Евгений Иванов-Барков) [1948, СССР, комедия, мелодрама, музыкальный фильм, DVDRip от AVP Studio]

Далекая невеста через торрент piratbit.org

Размер: 1.46 GB | Добавлен: 7 лет 1 мес. назад | Торрент скачан:5 раз
Смотреть онлайн Далекая невеста | Скачать   

02-08-2015 20:12 Далекая невеста Скачать торрент  

Далекая невеста
Страна: СССР
Производство: Ашхабадская киностудия

Жанр: комедия, мелодрама, музыкальный фильм
Год выпуска: 1948
Продолжительность: 01:22:09

Перевод: Не требуется
Cубтитры: нет
Оригинальная аудиодорожка: русский

Режиссер: Евгений Иванов-Барков

В ролях:
Алты Карлиев, Василий Нещипленко, Аман Кульмамедов, Сонá (София) Клычёва, Мариам Шафигулина, А. Овезова, Сарры Каррыев (озвучивает Сергей Филиппов), К. Мурадова, М. Сейдниязов, Ашир Меляев, Саша Кириллов...
Полный список актёров

Описание:
Донской казак Захар, потерявший во время войны родных, приезжает со своим другом Керимом в Туркменистан и надеется на то, что его невеста - знатная крановщица Гюзель, которая приезжала к ним на фронт и сейчас живет в соседнем колхозе - быстро отзовется на их приезд. Но почтальон что-то напутал и Гюзель - в неведении о своем возлюбленном... А тем вpеменем отец друга (он же и председатель коневодческого колхоза) сватает ему достойную ударницу-красавицу Джамал, не подозревая о любви к ней собственного сына...

Источник: DVD5 R5
Качество видео: DVDRip
Формат видео: AVI
Видео кодек: XviD
Аудио кодек: AC3
Видео: 688x512 (4:3), 25 fps, XviD ~ 2341 kbps avg, 0.266 bit/pixel
Аудио: 48 kHz, Dolby Digital AC3 2.0, 192 kbps

Раздача от:
Общее
Полное имя : Dalekaya.nevesta.1948.DVDRip_[New-team]_by_AVP_Studio.avi
Формат : AVI
Формат/Информация : Audio Video Interleave
Размер файла : 1,46 Гбайт
Продолжительность : 1 ч. 22 м.
Общий поток : 2543 Кбит/сек
Программа кодирования : VirtualDubMod 1.5.10.3 | www.virtualdub-fr.org || (build 2550/release)
Библиотека кодирования : VirtualDubMod build 2550/release

Видео
Идентификатор : 0
Формат : MPEG-4 Visual
Профиль формата : Advanced Simple@L5
Параметр BVOP формата : 1
Параметр QPel формата : Нет
Параметр GMC формата : Без точки перехода
Параметр матрицы формата : Выборочная
Идентификатор кодека : XVID
Идентификатор кодека/Подсказка : XviD
Продолжительность : 1 ч. 22 м.
Битрейт : 2341 Кбит/сек
Ширина : 688 пикселей
Высота : 512 пикселей
Соотношение сторон : 4:3
Частота кадров : 25,000 кадров/сек
Цветовое пространство : YUV
Субдискретизация насыщенности : 4:2:0
Битовая глубина : 8 бит
Тип развёртки : Прогрессивная
Метод сжатия : С потерями
Бит/(Пиксели*Кадры) : 0.266
Размер потока : 1,34 Гбайт (92%)
Библиотека кодирования : XviD 73

Аудио
Идентификатор : 1
Формат : AC-3
Формат/Информация : Audio Coding 3
Расширение режима : CM (complete main)
Параметр Endianness формата : Big
Идентификатор кодека : 2000
Продолжительность : 1 ч. 22 м.
Вид битрейта : Постоянный
Битрейт : 192 Кбит/сек
Каналы : 2 канала
Расположение каналов : Front: L R
Частота : 48,0 КГц
Метод сжатия : С потерями
Размер потока : 113 Мбайт (8%)
Выравнивание : Разделение по промежуткам
Продолжительность промежутка : 40 мс. (1,00 видеокадр)
Время предзагрузки промежутка : 500 мс



Скачать Далекая невеста через торрент http://s020.radikal.ru/i709/1508/78/0a3258d80912.png Скачать, смотреть онлайн Далекая невеста бесплантно в хорошем качестве Описание:Донской казак Захар, потерявший во время войны родных, приезжает со своим другом Керимом в Туркменистан и надеется на то, что его ... 5 10 1
Торрент: Зарегистрирован [2015-08-02 20:12] · скачан: 5 раз
Статус: √ проверено
Размер: 1.46 GB
Как cкачать? Как скачать Далекая невеста через торрент | UTorrent

% Раздел Тема Автор DL S | L
Кино СССР [ 1.46 GB ] Далекая невеста | | DVDRip-AVC от AVP Studio AVP Studio Скачать
1 | 0
Кино СССР [ 744 MB ] Далекая невеста | | DVDRip от AVP Studio AVP Studio Скачать
1 | 0

28-11-2019 20:33  

Отключить вcю реклaмy на сайте

    Дорогой пользователь! Огромная просьба, поблагодарите релизера, оцените раздачу и оставьте свои комментарий, если Вы скачали Далекая невеста через торрент бесплатно!!
    Комментировать посты могут только пользователи прошедшие не сложную регистрацию
    Показать сообщения:    


    Далекая невеста через торрент
    Скачать бесплатно Далекая невеста
    Далекая невеста скачать торрент
    Далекая невеста смотреть онлайн
    Cкачать фильм Далекая невеста бесплатно
    Далекая невеста скачать торрент в хорошем качестве
    Далекая невеста смотреть онлайн бесплатно в хорошем качестве
    Вы не можете начинать темы
    Вы не можете отвечать на сообщения
    Вы не можете редактировать свои сообщения
    Вы не можете удалять свои сообщения
    Вы не можете голосовать в опросах
    Вы не можете прикреплять файлы к сообщениям
    Вы можете скачивать файлы