1 сезон

iTunes

iTunes

1

Line

MVO

iTunes

13

1 сезон

RePack

30

Deluxe

pack

Лицензия

ВАЖНО

ИГРА 18+

pack

RePack

MK11

RePack

jed

RePack

fifa19

RePack

RDR2

RePack

NEED FOR SPEED™ PAYBACK

4 сезон

9 сезон

Бесстыжие 9 сезон

Все сериалы

все сериалы на PB.wtf

RePack

FAR CRY 5

Anonymous, добрый день, мы катастрофически не успеваем собрать деньги на оплату серверов, помогите нам пожалуйста 5,10,15р., для нас важна любая помощь . В качестве благодарности мы отключим Вам всю рекламу на сайте (укажите свой ник в строку Ваше имя)!

×
  
Magnet ссылка

Медальон / The Medallion (Гордон Чан / Gordon Chan) [2003, Гонконг, США, фэнтези, боевик, триллер, BDRip, Дубляж+MVO+AVO+ENG piratbit.org

Медальон через торрент piratbit.org

Размер: 1.45 GB | Добавлен: 7 лет 10 мес. назад | Торрент скачан:233 раза
Скачать  

14-09-2013 12:26 Медальон Скачать торрент  


Медальон / The Medallion


  • Год выпуска:2003
  • Страна:Гонконг, США
  • Жанр:фэнтези, боевик, триллер, комедия

  • Продолжительность: 01:28:27
  • Перевод:Профессиональный (полное дублирование)

  • Субтитры: русские, английские (2 вида)(отдельно)
    • Режиссер:Гордон Чан / Gordon Chan
    • Сценарий: Альфред Чун / Alfred Cheung, Беннет Дэвлин / Bennett Davlin, Гордон Чан / Gordon Chan, Пол Вилер / Paul Wheeler, Бей Логан / Bey Logan
    • Продюсер: Альфред Чун / Alfred Cheung, Билл Борден / Bill Borden, Джеки Чан / Jackie Chan, Уилли Чан / Willie Chan, Сью-Лунг Тим Квок / Tim Kwok

  • В ролях:Джеки Чан (Eddie Yang), Ли Эванс (Arthur Watson), Клэр Форлани (Nicole James), Джулиан Сэндс (Snakehead), Джон Рис-Дэвис (Cmdr. Hammerstock-Smythe), Энтони Вонг Чау-Санг (Lester), Кристи Чунг (Charlotte Watson), Йохан Майерс (Giscard), Алекс Бао (Jai), Сиу-Минг Лау (Antiquerium Dealer), Диана С. Вэн (Undercover Woman), Чоу Пок Фу (High Priest)
    • Описание:
      Гонконгскому полицейскому Эдди Янгу удается уцелеть в абсолютно безнадежной ситуации. Жизнь ему спасает таинственный магический медальон. Это старинное украшение наделяет Эдди невероятной, сверхчеловеческой мощью, превратив в непобедимого воина. Янг вместе со своей напарницей Николь пытается разгадать тайну медальона, а заодно и дать отпор членам древнего воинского ордена, пытающимся завладеть могущественной реликвией...

  • Рейтинг
    kinopoisk.ru: 6.634 (9177)
    MPAA: PG-13 - Детям до 13 лет просмотр не желателен

      Автор рипа: Gellard
    • Качество:BDRip
    • Формат:AVI
    • Видео кодек: XviD
    • Аудио кодек:AC3
    • Видео: XviD, 720x304 (2.35:1), 1957 kbps, 23,976 fps, 0,373 bpp
    • Аудио: AC3 / 5.1 / 48 kHz / 384 kbps / 16 bit
    • Аудио #2: (MVO.1) 48 kHz, AC3 Dolby Digital, 3/2 (L,C,R,l,r) + LFE ch, 384.00 kbps avg (отдельно)
    • Аудио #3: (MVO.2) 48 kHz, AC3 Dolby Digital, 2/0 (L,R) ch, ~192 kbps avg (отдельно)
    • Аудио #4: (MVO.STS) 48 kHz, AC3 Dolby Digital, 2/0 (L,R) ch, ~192 kbps avg (отдельно)
    • Аудио #5: (AVO.KARPOVSKIY) 48 kHz, AC3 Dolby Digital, 2/0 (L,R) ch, ~192 kbps avg (отдельно)
    • Аудио #6: (ENG) 48 kHz, AC3 Dolby Digital, 3/2 (L,C,R,l,r) + LFE ch, 384.00 kbps avg (отдельно)


    General
    Complete name : D:ТорентыMedalyon.2003.RUS.BDRip.XviD.AC3.-HQCLUB.avi
    Format : AVI
    Format/Info : Audio Video Interleave
    File size : 1.45 GiB
    Duration : 1h 28mn
    Overall bit rate : 2 351 Kbps
    Movie name : Медальон / The Medallion (2003) BDRip
    Director : Gellard
    Genre : фэнтези, боевик, комедия
    Writing application : VirtualDubMod 1.5.10.2 (build 2542/release)

    Comment : 08.09.2013

    Video
    ID : 0
    Format : MPEG-4 Visual
    Format profile : Advanced Simple@L5
    Format settings, BVOP : 1
    Format settings, QPel : No
    Format settings, GMC : No warppoints
    Format settings, Matrix : Custom
    Codec ID : XVID
    Codec ID/Hint : XviD
    Duration : 1h 28mn
    Bit rate : 1 958 Kbps
    Width : 720 pixels
    Height : 304 pixels
    Display aspect ratio : 2.35:1
    Frame rate : 23.976 fps
    Color space : YUV
    Chroma subsampling : 4:2:0
    Bit depth : 8 bits
    Scan type : Progressive
    Compression mode : Lossy
    Bits/(Pixel*Frame) : 0.373
    Stream size : 1.21 GiB (83%)
    Writing library : XviD 65

    Audio
    ID : 1
    Format : AC-3
    Format/Info : Audio Coding 3
    Mode extension : CM (complete main)
    Codec ID : 2000
    Duration : 1h 28mn
    Bit rate mode : Constant
    Bit rate : 384 Kbps
    Channel(s) : 6 channels
    Channel positions : Front: L C R, Side: L R, LFE
    Sampling rate : 48.0 KHz
    Bit depth : 16 bits
    Compression mode : Lossy
    Stream size : 243 MiB (16%)
    Alignment : Split accross interleaves
    Interleave, duration : 42 ms (1.00 video frame)
    Interleave, preload duration : 500 ms

    • При съёмках финальных сцен фильма Джеки Чан рассёк лицо металлическим тросом, а во время выполнения прыжка через пылающий занавес - сжёг руки.
    • Сцену с маджонгом предложила включить в фильм Клэр Форлани.
    • В Тайланде на постройку декораций потребовалось 4 месяца. 250 тайских рабочих, с небольшим количеством англичан, должны были построить интерьер замка, который был сконструирован в закрытом стадионе. Они также вынуждены были строить гигантскую пещеру, которая была построена в массивном складе и Ирландское поместье, которое было построено в полностью оборудованной студии.
    • Большинство сцен, снятых за границей, были сделаны в Дублине и графстве Уиклоу. Сцены ирландских лесов, дублинского порта, интерьера замка и гигантской пещеры были сняты в Тайланде, также как и большинство сцен интерьера.
    • На роль Ли Эванса первоначально планировалось взять Роуэна Эткинсона. Но из-за маленького гонорара он отказался участвовать в картине.
    • Первоначально картина называлась «Призраки-бойцы» (Highbinders), и ее выпуск намечался на май 2002-го, а затем на февраль и впоследствии на октябрь 2003 года. В итоге же Sony решила, что наиболее подходящая дата премьеры этого фильма - 22 августа. Производство картины задержалось из-за того, что было принято решение снять несколько дополнительных сцен с расчетом на американского зрителя.
    • еще 3 факта

    © Оформление by Vetalpiratbit.org



  • Скачать Медальон через торрент https://pic1.kartinco.top/images/23/oj3ukxpaew.png Скачать фильм Медальон через торрент бесплантно в хорошем качестве Описание:скому полицейскому Эдди Янгу удается уцелеть в абсолютно безнадежной ситуации. Жизнь ему спасает таинственный магический ... 10 10 11
    Info! Золотая раздача, скачанное не засчитывается.
    Торрент: Зарегистрирован [2013-09-14 12:26] · скачан: 233 раз
    Статус: √ проверено
    Размер: 1.45 GB
    Как cкачать? Как скачать Медальон через торрент | UTorrent

    28-11-2019 20:33  

    Отключить всю рекламу на сайте

      Дорогой пользователь! Огромная просьба, поблагодарите релизера, оцените раздачу и оставьте свои комментарий, если Вы скачали Медальон через торрент бесплатно! Внесите свою лепту в развитие PiratBit!
      Комментировать посты могут только пользователи прошедшие не сложную регистрацию
      Показать сообщения:    

      Медальон через торрент
      Скачать бесплатно Медальон
      Медальон скачать торрент
      Медальон смотреть онлайн
      Cкачать фильм Медальон бесплатно
      Медальон скачать торрент в хорошем качестве
      Медальон смотреть онлайн бесплатно в хорошем качестве


      Вы не можете начинать темы
      Вы не можете отвечать на сообщения
      Вы не можете редактировать свои сообщения
      Вы не можете удалять свои сообщения
      Вы не можете голосовать в опросах
      Вы не можете прикреплять файлы к сообщениям
      Вы можете скачивать файлы