Ссылка на приватное зеркало всего за 1$. Внимание количество ограничено!!!

iTunes

iTunes

iTunes

1

iTunes

iTunes

iTunes

iTunes

iTunes

30
pack

$ от Little Big

ВАЖНО

!!Акция!!

Alien_RageХит недели

RePack

Resident Evil 21

ИГРА 18+

pack

RePack

jed

!!Акция!!

Alien_Rage

RePack

fifa19

RePack

Assassins Creed: Odyssey

RePack

NEED FOR SPEED™ PAYBACK

4 сезон

9 сезон

Бесстыжие 9 сезон

Все сериалы

все сериалы на PB.wtf

RePack

FAR CRY 5
  

Однажды в Риме / When in Rome (Марк Стивен Джонсон / Mark Steven Johnson) [2010 г., Комедия, мелодрама, BDRip 1080p, лицензия] piratbit.org

Однажды в Риме через торрент piratbit.org

Размер: 8.43 GB | Добавлен: 10 лет назад | Торрент скачан:26 раз
Скачать  

01-07-2010 17:38 Однажды в Риме Скачать торрент  

Однажды в Риме / When in Rome
«Все дороги ведут в Рим. Поиски любви ведут туда же...»
Год выпуска: 2010
Страна: США, Touchstone Pictures
Жанр: комедия, мелодрама
Продолжительность: 01:30:47
Перевод: Профессиональный (полное дублирование)
Субтитры: Russian (надписи и пр.), Ukrainian (надписи и пр.), Russian, Ukrainian, English, French, Spanish

Режиссер: Марк Стивен Джонсон / Mark Steven Johnson
Продюссер: Рикки Лиа Бестолл, Гари Фостер, Джозеф Е. Иберти, ...
Сценарий: Дэвид Даймонд, Дэвид Вайсман

Премьера в мире: 29 января 2010

PG-13
-Детям до 13 лет просмотр не желателен
Мировой рейтинг IMDB 5.10 (4 338)


В ролях: Кристен Белл, Дэнни Де Вито, Джош Дюамель, Анджелика Хьюстон, Уилл Арнетт, Джон Хидер, Дэкс Шепард, Алексис Дзена, Пегги Липтон, Люка Калвани

Описание: Бетти живёт в Нью-Йорке и абсолютно не верит в романтику. Но однажды её младшая сестра приглашает Бетти на свою свадьбу — в старинном палаццо в самом сердце вечного города, Рима. По воле случая, как раз напротив оказывается легендарный Fantana D`Amore, фонтан, куда туристы со всего света бросают монетки, загадывая удачу в любви. Отчаянная девушка похищает из фонтана несколько монет, но она не знает, что из-за древней магии хозяева этих монеток превращаются в её отчаянных воздыхателей, которые последуют за ней через океан, настойчиво предлагая руку и сердце. Сумеет ли Бетти избавиться от назойливых поклонников и найти свою настоящую любовь?
Качество: BDRip (1080р)
Формат: MKV
Видео кодек: H.264
Аудио кодек: AC3
Видео: 1920x800 [2.40:1] at 23.976 fps, x.264 @ L4.1 [DXVA], ~11037 Kbps avg
Аудио#1: Russian: 48 kHz, AC3, 3/2 (L,C,R,l,r) + LFE ch, ~384.00 kbps avg |Дубляж, R5|
Аудио#2: Ukrainian: 48 kHz, AC3, 3/2 (L,C,R,l,r) + LFE ch, ~384.00 kbps avg |Дубляж, R5|
Аудио#3: English:48 kHz, DTS, 3/2 (L,C,R,l,r) + LFE ch, ~1536.00 kbps avg |Оригинал|
General
Complete name : D:\when.in.Rome.2010.1080p.Bluray.DTS.Rus.Ukr.Eng.HDCLUB.mkv
Format : Matroska
File size : 8.43 GiB
Duration : 1h 30mn
Overall bit rate : 13.3 Mbps
Movie name : When in Rome (2010) - Release for HDCLUB
Encoded date : UTC 2010-06-16 22:39:39
Writing application : mkvmerge v3.3.0 ('Language') built on Mar 24 2010 14:59:24
Writing library : libebml v0.8.0 + libmatroska v0.9.0

Video
ID : 1
Format : AVC
Format/Info : Advanced Video Codec
Format profile : High@L4.1
Format settings, CABAC : Yes
Format settings, ReFrames : 5 frames
Muxing mode : Container profile=Unknown@4.1
Codec ID : V_MPEG4/ISO/AVC
Duration : 1h 30mn
Bit rate : 10.7 Mbps
Nominal bit rate : 11.0 Mbps
Width : 1 920 pixels
Height : 800 pixels
Display aspect ratio : 2.40:1
Frame rate : 23.976 fps
Resolution : 8 bits
Colorimetry : 4:2:0
Scan type : Progressive
Bits/(Pixel*Frame) : 0.292
Stream size : 6.81 GiB (81%)
Title : Release for HDCLUB
Writing library : x264 core 98 r1643 59a9e03
Encoding settings : cabac=1 / ref=5 / deblock=1:-3:-3 / analyse=0x3:0x113 / me=umh / subme=10 / psy=1 / psy_rd=0.85:0.00 / mixed_ref=1 / me_range=32 / chroma_me=1 / trellis=2 / 8x8dct=1 / cqm=0 / deadzone=21,11 / fast_pskip=1 / chroma_qp_offset=-2 / threads=12 / sliced_threads=0 / nr=0 / decimate=0 / interlaced=0 / constrained_intra=0 / bframes=8 / b_pyramid=2 / b_adapt=2 / b_bias=0 / direct=3 / weightb=1 / weightp=2 / keyint=250 / keyint_min=25 / scenecut=40 / intra_refresh=0 / rc_lookahead=60 / rc=2pass / mbtree=1 / bitrate=11030 / ratetol=1.0 / qcomp=0.60 / qpmin=10 / qpmax=51 / qpstep=4 / cplxblur=20.0 / qblur=0.5 / vbv_maxrate=50000 / vbv_bufsize=50000 / ip_ratio=1.40 / aq=1:0.60 / nal_hrd=none
Language : English

Audio #1
ID : 2
Format : AC-3
Format/Info : Audio Coding 3
Codec ID : A_AC3
Duration : 1h 30mn
Bit rate mode : Constant
Bit rate : 384 Kbps
Channel(s) : 6 channels
Channel positions : Front: L C R, Side: L R, LFE
Sampling rate : 48.0 KHz
Stream size : 249 MiB (3%)
Title : AC3 5.1 384 Kbps [Дубляж, R5]
Language : Russian

Audio #2
ID : 3
Format : AC-3
Format/Info : Audio Coding 3
Codec ID : A_AC3
Duration : 1h 30mn
Bit rate mode : Constant
Bit rate : 384 Kbps
Channel(s) : 6 channels
Channel positions : Front: L C R, Side: L R, LFE
Sampling rate : 48.0 KHz
Stream size : 249 MiB (3%)
Title : AC3 5.1 384 Kbps [Дубляж, R5]
Language : Ukrainian

Audio #3
ID : 4
Format : DTS
Format/Info : Digital Theater Systems
Codec ID : A_DTS
Duration : 1h 30mn
Bit rate mode : Constant
Bit rate : 1 510 Kbps
Channel(s) : 6 channels
Channel positions : Front: L C R, Side: L R, LFE
Sampling rate : 48.0 KHz
Resolution : 24 bits
Stream size : 980 MiB (11%)
Title : DTS 5.1 1536 Kbps [Оригинал]
Language : English

Text #1
ID : 5
Format : UTF-8
Codec ID : S_TEXT/UTF8
Codec ID/Info : UTF-8 Plain Text
Title : Надписи и пр.
Language : Russian

Text #2
ID : 6
Format : UTF-8
Codec ID : S_TEXT/UTF8
Codec ID/Info : UTF-8 Plain Text
Title : Надписи и пр.
Language : Ukrainian

Text #3
ID : 7
Format : UTF-8
Codec ID : S_TEXT/UTF8
Codec ID/Info : UTF-8 Plain Text
Language : Russian

Text #4
ID : 8
Format : UTF-8
Codec ID : S_TEXT/UTF8
Codec ID/Info : UTF-8 Plain Text
Language : Ukrainian

Text #5
ID : 9
Format : UTF-8
Codec ID : S_TEXT/UTF8
Codec ID/Info : UTF-8 Plain Text
Language : English

Text #6
ID : 10
Format : UTF-8
Codec ID : S_TEXT/UTF8
Codec ID/Info : UTF-8 Plain Text
Language : French

Text #7
ID : 11
Format : UTF-8
Codec ID : S_TEXT/UTF8
Codec ID/Info : UTF-8 Plain Text
Language : Spanish

Menu
00:00:00.000 : en:1. Opening Credits / Beth's Big Event
00:05:10.060 : en:2. Joan's Getting Married
00:10:57.198 : en:3. A Wedding in Rome
00:14:36.334 : en:4. Beth Makes a Speech
00:18:48.586 : en:5. The Wedding Dance
00:22:39.233 : en:6. In the Fountain of Love
00:26:50.526 : en:7. Beth Returns Home
00:28:57.277 : en:8. The Coins in New York
00:35:16.197 : en:9. Front Page News
00:40:14.954 : en:10. Beth on the Run
00:44:20.908 : en:11. Recon on Beth
00:49:15.744 : en:12. Nick Gets a Date
00:54:26.013 : en:13. Safe at the Museum
00:59:52.088 : en:14. Breaking the Spells
01:05:51.948 : en:15. Driving the Gridlock
01:09:47.642 : en:16. Returning the Coins
01:14:57.243 : en:17. The Last Coin
01:17:27.726 : en:18. Another Wedding
01:22:09.091 : en:19. Beth Objects
01:24:36.488 : en:20. The End / End Credits





Теперь в МОИХ РАЗДАЧАХ ® "море СЕРЕБРА и ЗОЛОТА", соответственно засчитывается
либо половина закаченного
(СЕРЕБРО), либо вообще не идет в зачет скаченное (ЗОЛОТО)!




piratbit.org



Скачать Однажды в Риме через торрент http://i8.fastpic.ru/big/2010/0701/2b/da2ac46b0d8961cee1ad6afc3962bd2b.jpg Скачать фильм Однажды в Риме через торрент бесплантно в хорошем качестве Описание: Бетти живёт в Нью-Йорке и абсолютно не верит в романтику. Но однажды её младшая сестра приглашает Бетти на свою свадьбу — в ... 5 10 1
Info! Золотая раздача, скачанное не засчитывается.
Торрент: Зарегистрирован [2010-07-01 20:48] · скачан: 26 раз
Статус: √ проверено
Размер: 8.43 GB
Как cкачать? Как скачать Однажды в Риме через торрент | qTorrent

% Раздел Тема Автор DL S | L
Фильмы 2010 [ 2.18 GB ] Однажды в Риме / When in Rome [2010 BDRip-AVC] DUB bober100 Скачать
1 | 0
Фильмы 2001-2005 [ 1.37 GB ] Однажды в Риме / When in Rome [2002 DVDRip MVO] markfiter Скачать
1 | 0
Фильмы 2010 [ 2.01 GB ] Однажды в Риме / When in Rome [2010 HDRip] Venxxx Скачать
1 | 0
Фильмы 2010 [ 1.36 GB ] Однажды в Риме / When in Rome [2010 HDRip лицензия] SD Скачать
1 | 0
Фильмы 2010 [ 701 MB ] Однажды в Риме / When in Rome [2010 HDRip] aspace Скачать
1 | 0
Фильмы [HD 720p, 1080p] (Хороший звук DUB, MVO) [ 4.61 GB ] Однажды в Риме / When in Rome [2010 BDRip лицензия] DEVI Скачать
1 | 0


Последний раз редактировалось: EXEBET (2010-07-01 20:48), всего редактировалось 1 раз

28-11-2019 20:33  

Отключить всю рекламу на сайте

02-07-2010 18:34 Однажды в Риме Скачать торрент  

    Дорогой пользователь! Огромная просьба, поблагодарите релизера, оцените раздачу и оставьте свои комментарий, если Вы скачали Однажды в Риме через торрент бесплатно! Внесите свою лепту в развитие PiratBit!
    Комментировать посты могут только пользователи прошедшие не сложную регистрацию
    Показать сообщения:    

    Однажды в Риме через торрент
    Скачать бесплатно Однажды в Риме
    Однажды в Риме скачать торрент
    Однажды в Риме смотреть онлайн
    Cкачать фильм Однажды в Риме бесплатно
    Однажды в Риме скачать торрент в хорошем качестве
    Однажды в Риме смотреть онлайн бесплатно в хорошем качестве


    Вы не можете начинать темы
    Вы не можете отвечать на сообщения
    Вы не можете редактировать свои сообщения
    Вы не можете удалять свои сообщения
    Вы не можете голосовать в опросах
    Вы не можете прикреплять файлы к сообщениям
    Вы можете скачивать файлы