Ссылка на приватное зеркало нашего сайта всего за 1$. Внимание количество ограничено!!!

2 сезон

iTunes

iTunes

1

iTunes

iTunes

iTunes

WEBRip

iTunes

30
pack

Вам бонус

ВАЖНО

!!Акция!!

Alien_RageХит недели

RePack

Horizon Zero Dawn

ИГРА 18+

pack

RePack

jed

!!Акция!!

Alien_Rage

RePack

fifa19

RePack

Assassins Creed: Odyssey

RePack

NEED FOR SPEED™ PAYBACK

4 сезон

9 сезон

Бесстыжие 9 сезон

Все сериалы

все сериалы на PB.wtf

RePack

FAR CRY 5
  

Парфюмер: История одного убийцы / Perfume: The Story of a Murderer (Том Тыквер) [2006 г., Триллер, драма, криминал, HDRip, Дубляж, Лицензия] piratbit.org

Парфюмер: История одного убийцы через торрент piratbit.org

Размер: 2.36 GB | Добавлен: 5 лет 1 мес. назад | Торрент скачан:132 раза
Скачать  

11-08-2015 17:12 Парфюмер: История одного убийцы Скачать торрент  

Парфюмер: История одного убийцы / Perfume: The Story of a MurdererГод выпуска: 2006
Страна: Германия, Франция, Испания, США
Жанр: Триллер, драма, криминал
Продолжительность: 02:27:25
Перевод: Дубляж, Лицензия
Субтитры: Нет

Режиссер: Том Тыквер
Продюссер: Бернд Айхингер, Хулио Фернандес, Тереса Гефаэль
Сценарий: Эндрю Биркин, Бернд Айхингер, Том Тыквер

Бюджет: $60 000 000
Премьера в мире: 7 сентября 2006



В ролях: Бен Уишоу, Дастин Хоффман, Алан Рикман, Рэйчел Херд-Вуд, Андрэ Эррера, Саймон Чендлер, Дэвид Колдер, Ричард Феликс, Берджит Миничмейр, Рег Уилсон

Описание: Жестокий, никогда не знавший любви, сирота Жан-Батист Гренуй настоящих успехов достиг лишь на одном поприще — среди парфюмеров ему никогда не было равных. По его духам сходит с ума весь высший свет, не подозревая о том, какой страшной ценой будет получен последний, идеальный аромат... Впервые роман был напечатан в Швейцарии в 1985 году. На сегодняшний день он признан самым знаменитым романом, написанным на немецком языке со времен Ремарка, и выдержал множество изданий общим тиражом более 12 миллионов экземпляров. Книга переведена на 42 языка, включая латынь. Впервые на русском языке роман был опубликован в восьмом номере журнала «Иностранная литература» в 1991 году, в переводе Э. В. Венгеровой.

Качество: HDRip | BDRip 1080p
Формат: AVI
Видео кодек: XviD
Аудио кодек: AC3
Видео: 720x304 (2.37:1), 23.976 fps, XviD build 50 ~1898 kbps avg, 0.36 bit/pixel
Аудио: 48 kHz, AC3 Dolby Digital, 3/2 (L,C,R,l,r) + LFE ch, ~384 kbps


Автор рипа: Dean24





Общее
Полное имя : D:\Мои документы\Фильмы\Сайт\Perfume.The.Story.of.a.Murderer.HDRip.avi
Формат : AVI
Формат/Информация : Audio Video Interleave
Профиль формата : OpenDML
Размер файла : 2,36 Гбайт
Продолжительность : 2 ч. 27 м.
Общий поток : 2289 Кбит/сек
Программа кодирования : VirtualDubMod 1.5.10.3 | (build 2550/release)
Библиотека кодирования : VirtualDubMod build 2550/release

Видео
Идентификатор : 0
Формат : MPEG-4 Visual
Профиль формата : Advanced Simple@L5
Параметр BVOP формата : 3
Параметр QPel формата : Нет
Параметр GMC формата : Без точки перехода
Параметр матрицы формата : Default (H.263)
Идентификатор кодека : XVID
Идентификатор кодека/Подсказка : XviD
Продолжительность : 2 ч. 27 м.
Битрейт : 1894 Кбит/сек
Ширина : 720 пикселей
Высота : 304 пикселя
Соотношение сторон : 2,35:1
Частота кадров : 23,976 кадра/сек
Цветовое пространство : YUV
Субдискретизация насыщенности : 4:2:0
Битовая глубина : 8 бит
Тип развёртки : Прогрессивная
Метод сжатия : С потерями
Бит/(Пиксели*Кадры) : 0.361
Размер потока : 1,95 Гбайт (83%)
Библиотека кодирования : XviD 1.2.1 (UTC 2008-12-04)

Аудио
Идентификатор : 1
Формат : AC-3
Формат/Информация : Audio Coding 3
Расширение режима : CM (complete main)
Параметр Endianness формата : Big
Идентификатор кодека : 2000
Продолжительность : 2 ч. 27 м.
Вид битрейта : Постоянный
Битрейт : 384 Кбит/сек
Каналы : 6 каналов
Расположение каналов : Front: L C R, Side: L R, LFE
Частота : 48,0 КГц
Битовая глубина : 16 бит
Метод сжатия : С потерями
Размер потока : 405 Мбайт (17%)
Выравнивание : Разделение по промежуткам
Продолжительность промежутка : 42 мс. (1,00 видеокадр)
Время предзагрузки промежутка : 500 мс.

piratbit.org



Скачать Парфюмер: История одного убийцы через торрент http://i70.fastpic.ru/big/2015/0811/19/95372839b0a9b5f80f35562e67944119.jpg Скачать фильм Парфюмер: История одного убийцы через торрент бесплантно в хорошем качестве Описание: Жестокий, никогда не знавший любви, сирота Жан-Батист Гренуй настоящих успехов достиг лишь на одном поприще — среди парфюмеров ... 9.3 10 13
Info! Золотая раздача, скачанное не засчитывается.
Торрент: Зарегистрирован [2015-08-11 17:12] · скачан: 132 раз
Статус: √ проверено
Размер: 2.36 GB
Как cкачать? Как скачать Парфюмер: История одного убийцы через торрент | qTorrent

% Раздел Тема Автор DL S | L
Ultra HD (UHD: 2K, 4K, 8K) — видео сверхвысокой чёткости [ 57.61 GB ] Парфюмер: история одного убийцы / Perfume: The Story of a Murderer [2006 UHD BDRemux 2160p] DUB +2xAVO bober100 Скачать
1 | 0
Ultra HD (UHD: 2K, 4K, 8K) — видео сверхвысокой чёткости [ 32.52 GB ] Парфюмер: История одного убийцы / Perfume: The Story of a Murderer [2006 UHD WEBRip 2160p] - [] sheker187 Скачать
1 | 0
Фильмы [HD 720p, 1080p] (Хороший звук DUB, MVO) [ 7.95 GB ] Парфюмер: История одного убийцы / Perfume: The Story of a Murderer [2006 BDRip 720p] DUB AVO potroks Скачать
1 | 0
Фильмы [HD 720p, 1080p] (Хороший звук DUB, MVO) [ 4.37 GB ] Парфюмер: История одного убийцы / Perfume: The Story of a Murderer [2006 Германия Испания BDRip 720p от Leonardo] DUB Ворон Скачать
1 | 0
Фильмы (HD 720p, 1080p) (48-60 fps) [ 6.36 GB ] Парфюмер: История одного убийцы / Perfume: The Story of a Murderer [2006 Германия Испания BDRip 720p / 60 FPS ] от R.G. HD-Film СидБот60fps Скачать
1 | 0
Фильмы (HD 720p, 1080p) (48-60 fps) [ 9.07 GB ] Парфюмер: История одного убийцы / Perfume: The Story of a Murderer [2006 Германия Испания BDRip 1080p / 60 FPS ] от R.G. HD-Films СидБот60fps Скачать
1 | 0
Фильмы [HD 720p, 1080p] (Хороший звук DUB, MVO) [ 9.59 GB ] Парфюмер: История одного убийцы / Perfume: The Story of a Murderer [2006 BDRip 720p DUB лицензия] Зайчина Скачать
1 | 0

28-11-2019 20:33  

Отключить всю рекламу на сайте

11-08-2015 21:40 Парфюмер: История одного убийцы Скачать торрент  

Хороший фильм мне понравился !!! Не сколько раз смотрел включая телек.piratbit.org



    Дорогой пользователь! Огромная просьба, поблагодарите релизера, оцените раздачу и оставьте свои комментарий, если Вы скачали Парфюмер: История одного убийцы через торрент бесплатно! Внесите свою лепту в развитие PiratBit!
    Комментировать посты могут только пользователи прошедшие не сложную регистрацию
    Показать сообщения:    

    Парфюмер: История одного убийцы через торрент
    Скачать бесплатно Парфюмер: История одного убийцы
    Парфюмер: История одного убийцы скачать торрент
    Парфюмер: История одного убийцы смотреть онлайн
    Cкачать фильм Парфюмер: История одного убийцы бесплатно
    Парфюмер: История одного убийцы скачать торрент в хорошем качестве
    Парфюмер: История одного убийцы смотреть онлайн бесплатно в хорошем качестве


    Вы не можете начинать темы
    Вы не можете отвечать на сообщения
    Вы не можете редактировать свои сообщения
    Вы не можете удалять свои сообщения
    Вы не можете голосовать в опросах
    Вы не можете прикреплять файлы к сообщениям
    Вы можете скачивать файлы