Доктор Стрэндж

Лицензия

Добыча

MVO

Дом дракона

1 сезон

Тор

Лицензия

Мэверик

Лицензия

Там, где раки поют

MVO

Властелин колец

1 сезон

Ultimate

pack

Рекомендуем

30

Repack

ВАЖНО

ВАЖНО

Ghostwire

RePack

jed

RePack

nioh2

RePack

RDR2

RePack

NEED FOR SPEED™ PAYBACK

RePack

скачать торрент

Кинопоиск HD

Острые козырьки 6 сезон

6 сезон

FAR CRY 6

RePack

скачать торрент

Лицензия

скачать торрент

MVO

1

1 сезон

скачать торрент

1 сезон

скачать торрент

Лицензия

  

Академик Иван Павлов (Григорий Рошаль) [1949, СССР, драма, биография, DVDRip-AVC от AVP Studio]

Академик Иван Павлов через торрент piratbit.org

Размер: 1.46 GB | Добавлен: 7 лет 1 мес. назад | Торрент скачан:12 раз
Смотреть онлайн Академик Иван Павлов | Скачать   

15-08-2015 18:17 Академик Иван Павлов Скачать торрент  

Академик Иван Павлов
Страна: СССР
Производство: Ленфильм

Жанр: драма, биография
Год выпуска: 1949
Продолжительность: 01:36:06

Перевод: Не требуется
Cубтитры: нет
Оригинальная аудиодорожка: русский

Режиссер: Григорий Рошаль

В ролях:
Александр Борисов, Нина Алисова, Владимир Честноков, Фёдор Никитин, Владимир Балашов, Николай Плотников, Марьяна Сафонова, Иван Дмитриев, Григорий Шпигель, Василий Софронов, Георгий Бельникевич, Николай Черкасов...
Полный список актёров

Описание:
Иван Петрович Павлов (1849-1936г.г.) - выдающийся ученый-физиолог, нобелевский лауреат, создатель учения о высшей нервной деятельности. Фильм рассказывает о жизни и научной деятельности Павлова с первых его шагов в науке до сенсационных открытий, сыгравших огромную роль в развитии медицины и психологии.

Источник: DVD5 R5
Качество видео: DVDRip-AVC
Формат видео: MKV
Видео кодек: H.264
Аудио кодек: AC3
Видео: 704->762x572 (4:3), 25 fps, H264 ~ 1981 kbps avg, 0.197 bit/pixel
Аудио: 48 kHz, Dolby Digital AC3 2.0, 192 kbps

Раздача от:
Общее
Полное имя : Akademik.Ivan.Pavlov.1949.DVDRip-AVC_[New-team]_by_AVP_Studio.mkv
Формат : Matroska
Версия формата : Version 2
Размер файла : 1,46 Гбайт
Продолжительность : 1 ч. 36 м.
Общий поток : 2175 Кбит/сек
Дата кодирования : UTC 2015-08-15 13:38:05
Программа кодирования : mkvmerge v6.1.0 ('Old Devil') built on Mar 4 2013 09:10:42
Библиотека кодирования : libebml v1.3.0 + libmatroska v1.4.0

Видео
Идентификатор : 1
Формат : AVC
Формат/Информация : Advanced Video Codec
Профиль формата : High@L4.1
Параметр CABAC формата : Да
Параметр ReFrames формата : 8 кадров
Идентификатор кодека : V_MPEG4/ISO/AVC
Продолжительность : 1 ч. 36 м.
Битрейт : 1981 Кбит/сек
Ширина : 704 пикселя
Высота : 572 пикселя
Соотношение сторон : 4:3
Режим частоты кадров : Постоянный
Частота кадров : 25,000 кадров/сек
Цветовое пространство : YUV
Субдискретизация насыщенности : 4:2:0
Битовая глубина : 8 бит
Тип развёртки : Прогрессивная
Бит/(Пиксели*Кадры) : 0.197
Размер потока : 1,30 Гбайт (89%)
Библиотека кодирования : x264 core 130 r2273 b3065e6
Настройки программы : cabac=1 / ref=8 / deblock=1:-2:-1 / analyse=0x3:0x113 / me=umh / subme=10 / psy=1 / psy_rd=1.00:0.05 / mixed_ref=1 / me_range=32 / chroma_me=1 / trellis=2 / 8x8dct=1 / cqm=0 / deadzone=21,11 / fast_pskip=0 / chroma_qp_offset=-3 / threads=6 / lookahead_threads=1 / sliced_threads=0 / nr=0 / decimate=0 / interlaced=0 / bluray_compat=0 / constrained_intra=0 / bframes=8 / b_pyramid=2 / b_adapt=2 / b_bias=0 / direct=3 / weightb=1 / open_gop=0 / weightp=2 / keyint=250 / keyint_min=25 / scenecut=40 / intra_refresh=0 / rc=2pass / mbtree=0 / bitrate=1981 / ratetol=1.0 / qcomp=0.60 / qpmin=0 / qpmax=69 / qpstep=4 / cplxblur=20.0 / qblur=0.5 / ip_ratio=1.40 / pb_ratio=1.30 / aq=1:1.00
Default : Да
Forced : Нет

Аудио
Идентификатор : 2
Формат : AC-3
Формат/Информация : Audio Coding 3
Расширение режима : CM (complete main)
Параметр Endianness формата : Big
Идентификатор кодека : A_AC3
Продолжительность : 1 ч. 36 м.
Вид битрейта : Постоянный
Битрейт : 192 Кбит/сек
Каналы : 2 канала
Расположение каналов : Front: L R
Частота : 48,0 КГц
Метод сжатия : С потерями
Размер потока : 132 Мбайт (9%)
Default : Да
Forced : Нет



Скачать Академик Иван Павлов через торрент http://s017.radikal.ru/i403/1508/46/151c0cd118c3.png Скачать, смотреть онлайн Академик Иван Павлов бесплантно в хорошем качестве Описание:Иван Петрович Павлов (1849-1936г.г.) - выдающийся ученый-физиолог, нобелевский лауреат, создатель учения о высшей нервной ... 10 10 2
Торрент: Зарегистрирован [2015-08-15 18:17] · скачан: 12 раз
Статус: √ проверено
Размер: 1.46 GB
Как cкачать? Как скачать Академик Иван Павлов через торрент | UTorrent

% Раздел Тема Автор DL S | L
Кино СССР [ 745 MB ] Академик Иван Павлов | | DVDRip от AVP Studio AVP Studio Скачать
1 | 0
Кино СССР [ 1.46 GB ] Академик Иван Павлов | | DVDRip от AVP Studio AVP Studio Скачать
1 | 0

28-11-2019 20:33  

Отключить вcю реклaмy на сайте

    Дорогой пользователь! Огромная просьба, поблагодарите релизера, оцените раздачу и оставьте свои комментарий, если Вы скачали Академик Иван Павлов через торрент бесплатно!!
    Комментировать посты могут только пользователи прошедшие не сложную регистрацию
    Показать сообщения:    


    Академик Иван Павлов через торрент
    Скачать бесплатно Академик Иван Павлов
    Академик Иван Павлов скачать торрент
    Академик Иван Павлов смотреть онлайн
    Cкачать фильм Академик Иван Павлов бесплатно
    Академик Иван Павлов скачать торрент в хорошем качестве
    Академик Иван Павлов смотреть онлайн бесплатно в хорошем качестве
    Вы не можете начинать темы
    Вы не можете отвечать на сообщения
    Вы не можете редактировать свои сообщения
    Вы не можете удалять свои сообщения
    Вы не можете голосовать в опросах
    Вы не можете прикреплять файлы к сообщениям
    Вы можете скачивать файлы