Присоединяйтесь к нам в Telegram!, здесь всегда актуальный адрес сайта, оперативная поддержка и многое другое!!

>

5.9

iTunes

7.4

iTunes

9.4

1 сезон

1

7.4

2 сезон

7.2

iTunes

7.3

1 сезон

13

6.1

iTunes

8.3

GOG

30

ULTIMATE

pack

9.9

Лицензия

ВАЖНО

ИГРА 18+

pack

7.3

RePack

MK11

7.7

RePack

jed

7.8

RePack

fifa19

8.5

RePack

RDR2

RePack

NEED FOR SPEED™ PAYBACK

5 сезон

9 сезон

Бесстыжие 9 сезон

Все сериалы

все сериалы на PB.wtf

RePack

FAR CRY 5

Anonymous, доброй ночи, мы катастрофически не успеваем собрать деньги на оплату серверов, помогите нам пожалуйста 5,10,15р., для нас важна любая помощь . В качестве благодарности мы отключим Вам всю рекламу на сайте (укажите свой ник в строку Ваше имя)!

×
  
Magnet ссылка

Полицейская тачка / Cop Car (Джон Уоттс / Jon Watts) [2015, США, триллер, WEB-DLRip, Любительский (одноголосый)] piratbit.org

Полицейская тачка через торрент piratbit.org

Размер: 1.37 GB | Добавлен: 6 лет 3 мес. назад | Торрент скачан:270 раз
Смотреть онлайн Полицейская тачка | Скачать    Ребята, помогите собрать деньги на оплату серверов!!!

17-08-2015 17:56 Полицейская тачка Скачать торрент  

Полицейская тачка / Cop Car «Their first drive could be their last»

Год выпуска: 2015
Страна: США
Жанр: триллер
Продолжительность: 01:27:46
Перевод: Любительский (одноголосый)
Субтитры: Отсутствует
Режиссер: Джон Уоттс / Jon Watts
В ролях:


Кевин Бейкон (Sheriff Kretzer), Джеймс Фридсон-Джексон (Travis), Хэйс Уэллфорд (Harrison), Камрин Менхейм (Bev), Ши Уигхэм (Man), Кэтлин Бентли (Trailer Park Lady), Джозеф Оливейра (Officer)

Описание:
Два 10-летних мальчишки находят заброшенный полицейский автомобиль и решают присвоить его себе. Обычная детская игра начинает приобретать пугающие черты после того, как шериф небольшого городка отправляется на поиски своей пропавшей машины.

Рейтинг:

MPAA: R - Лицам до 17 лет обязательно присутствие взрослого
Качество: WEB-DLRip
Формат: AVI
Видео кодек:XviD
Аудио кодек:AC3
Видео: XviD, 720x304 (2.35:1), 1747 kbps, 23,976 fps, 0,333 bpp
Аудио: AC3 / 5.1 / 48 kHz / 384 kbps / 16 bit - [Paul Bunyan]

General
Complete name : D:\_uTorrent_\Cop.Car.2015.L1.WEB-DLRip.1400MB.avi
Format : AVI
Format/Info : Audio Video Interleave
File size : 1.37 GiB
Duration : 1h 27mn
Overall bit rate : 2 229 Kbps
Writing application : VirtualDubMod 1.5.10.3 | www.virtualdub-fr.org || (build 2550/release)
Writing library : VirtualDubMod build 2550/release

Video
ID : 0
Format : MPEG-4 Visual
Format profile : Advanced Simple@L5
Format settings, BVOP : 2
Format settings, QPel : No
Format settings, GMC : No warppoints
Format settings, Matrix : Default (MPEG)
Codec ID : XVID
Codec ID/Hint : XviD
Duration : 1h 27mn
Bit rate : 1 748 Kbps
Width : 720 pixels
Height : 304 pixels
Display aspect ratio : 2.35:1
Frame rate : 23.976 fps
Color space : YUV
Chroma subsampling : 4:2:0
Bit depth : 8 bits
Scan type : Progressive
Compression mode : Lossy
Bits/(Pixel*Frame) : 0.333
Stream size : 1.07 GiB (78%)
Writing library : XviD 1.2.1 (UTC 2008-12-04)

Audio
ID : 1
Format : AC-3
Format/Info : Audio Coding 3
Mode extension : CM (complete main)
Codec ID : 2000
Duration : 1h 27mn
Bit rate mode : Constant
Bit rate : 384 Kbps
Channel(s) : 6 channels
Channel positions : Front: L C R, Side: L R, LFE
Sampling rate : 48.0 KHz
Bit depth : 16 bits
Compression mode : Lossy
Stream size : 241 MiB (17%)
Alignment : Split accross interleaves

[/code]
piratbit.org



Скачать Полицейская тачка через торрент http://i66.fastpic.ru/big/2015/0817/f8/ae26feb0d88a4db540e786b42f780af8.png Скачать, смотреть онлайн Полицейская тачка бесплантно в хорошем качестве Описание: Два 10-летних мальчишки находят заброшенный полицейский автомобиль и решают присвоить его себе. Обычная детская игра начинает ... 8.8 10 13
Info! Золотая раздача, скачанное не засчитывается.
Торрент: Зарегистрирован [2015-08-17 17:56] · скачан: 270 раз
Статус: T временная
Размер: 1.37 GB
Как cкачать? Как скачать Полицейская тачка через торрент | UTorrent

% Раздел Тема Автор DL S | L
T Релизы по Парсеру [Игры, Сериалы и Фильмы и другое...] [ 4 GB ] Полицейская тачка / Cop Car [2015 BDRip 720p] MVO [Paradox&Omskbird] GEKADOL Скачать
1 | 0
T Фильмы 2015 [DVDrip, WEB-DLRip, HDrip] [ 1.37 GB ] Полицейская тачка / Cop Car [2015 HDRip] MVO [Paradox&Omskbird] GEKADOL Скачать
1 | 0
Фильмы с авторской озвучкой [ 1.46 GB ] Полицейская тачка / Cop Car [2015 BDRip-AVC] AVO [М.Чадов] potroks Скачать
1 | 0
Фильмы с авторской озвучкой [ 2.05 GB ] Полицейская тачка / Cop Car [2015 BDRip-AVC от _denis_100 / NNNB] Авторский [М. Чадов] _denis_100 Скачать
1 | 0
Фильмы с авторской озвучкой [ 1.46 GB ] Полицейская тачка / Cop Car [2015 BDRip Авторский [Чадов] Twi7ter Скачать
1 | 0
T Фильмы 2015 (Звук TS, Cam, VO, DVO) [ 1.46 GB ] Полицейская тачка / Cop Car [2015 HDRip by Dean24] Dean24 Скачать
1 | 0
T Фильмы [HD 720p, 1080p] (Звук Cam, VO, DVO) [ 10.61 GB ] Полицейская тачка / Cop Car [2015 BDRip 1080p Любительский [Paul Bunyan]] Бумер Скачать
1 | 0

28-11-2019 20:33  

Отключить всю рекламу на сайте

    Дорогой пользователь! Огромная просьба, поблагодарите релизера, оцените раздачу и оставьте свои комментарий, если Вы скачали Полицейская тачка через торрент бесплатно!
    Комментировать посты могут только пользователи прошедшие не сложную регистрацию
    Показать сообщения:    

    Полицейская тачка через торрент
    Скачать бесплатно Полицейская тачка
    Полицейская тачка скачать торрент
    Полицейская тачка смотреть онлайн
    Cкачать фильм Полицейская тачка бесплатно
    Полицейская тачка скачать торрент в хорошем качестве
    Полицейская тачка смотреть онлайн бесплатно в хорошем качестве


    Вы не можете начинать темы
    Вы не можете отвечать на сообщения
    Вы не можете редактировать свои сообщения
    Вы не можете удалять свои сообщения
    Вы не можете голосовать в опросах
    Вы не можете прикреплять файлы к сообщениям
    Вы можете скачивать файлы