Ссылка на приватное зеркало всего за 1$. Внимание количество ограничено!!!

iTunes

iTunes

iTunes

1

iTunes

iTunes

iTunes

iTunes

iTunes

30
pack

$ от Little Big

ВАЖНО

!!Акция!!

Alien_RageХит недели

RePack

Resident Evil 21

ИГРА 18+

pack

RePack

jed

!!Акция!!

Alien_Rage

RePack

fifa19

RePack

Assassins Creed: Odyssey

RePack

NEED FOR SPEED™ PAYBACK

4 сезон

9 сезон

Бесстыжие 9 сезон

Все сериалы

все сериалы на PB.wtf

RePack

FAR CRY 5
  

Гринберг / Greenberg (Ной Баумбах / Noah Baumbach) [2010, США, комедия, драма, BDRip 1080p] DUB Sub rus + original eng piratbit.org

Гринберг через торрент piratbit.org

Размер: 8.28 GB | Добавлен: 9 лет назад | Торрент скачан:13 раз
Скачать  

03-07-2010 11:06 Гринберг Скачать торрент  

Гринберг / Greenberg

«Я хочу ничего не делать. Я занимаюсь этим намеренно.»

Год выпуска: 2010
Страна: США, Scott Rudin Productions
Жанр: комедия, драма
Продолжительность: 01:47:18
Перевод: Профессиональный (полное дублирование)
Cубтитры: Русские, английские
Формат субтитров: softsub (SRT)
Оригинальная аудиодорожка: английский

Режиссер: Ной Баумбах / Noah Baumbach
Продюссер: Дженнифер Джейсон Ли, Скотт Рудин, Lila Yacoub
Сценарий: Ной Баумбах, Дженнифер Джейсон Ли

Премьера в мире: 14 февраля 2010
R
-Лицам до 17 лет обязательно присутствие взрослого
Мировой рейтинг IMDB 7.20 (1 864)


В ролях: Бен Стиллер, Дженнифер Джейсон Ли, Рис Иванс, Дэйв Франко, Джуно Темпл, Крис Мессина, Бри Ларсон, Марк Дюплис, Грета Гервиг, Меррит Уивер

Описание: Роджер Гринберг стоит на перепутье. Потеряв работу, он не слишком торопится с поиском новой. Вместо этого Гринберг возвращается из Нью-Йорка в Лос-Анджелес, чтобы приглядывать за домом своего более успешного младшего брата. Так у него хотя бы будет бесплатное место для проживания. В родном городе он не находит понимания ни у старых друзей, ни у бывших коллег. Бездействие взрослого человека одних расстраивает, других разочаровывает. Лишь Флоренс, личная помощница брата, разделяет душевный кризис Гринберга. Она отчаянно ищет причину быть счастливой. Но ведь для этого меньше всего подходит очередной раздражительный неудачник?
Качество: BDRip 1080p
Формат: MKV
Видео кодек: MPEG-4 AVC
Аудио кодек: AC3, DTS
Видео: MPEG-4 AVC, 9080 Кбит/с, 1920x800, 23.976 кадр/с
Аудио 1: Русский (AC3, 6 ch, 448 Кбит/с, 48 KHz)
Аудио 2: Английский (DTS, 6 ch, 1536 Кбит/с, 48 KHz)
General
Complete name : D:Grinberg.2010.x264.BDRip(1080p)-Kinozal.TV-HD.mkv
Format : Matroska
File size : 8.28 GiB
Duration : 1h 47mn
Overall bit rate : 11.0 Mbps
Movie name : --SCHUMAHER--
Encoded date : UTC 2010-07-01 16:53:11
Writing application : mkvmerge v2.1.0 ('Another Place To Fall') built on Aug 19 2007 13:40:07
Writing library : libebml v0.7.7 + libmatroska v0.8.1

Video
ID : 1
Format : AVC
Format/Info : Advanced Video Codec
Format profile : High@L4.1
Format settings, CABAC : Yes
Format settings, ReFrames : 5 frames
Muxing mode : Container profile=Unknown@4.1
Codec ID : V_MPEG4/ISO/AVC
Duration : 1h 47mn
Bit rate : 9 080 Kbps
Width : 1 920 pixels
Height : 800 pixels
Display aspect ratio : 2.40:1
Frame rate : 23.976 fps
Color space : YUV
Chroma subsampling : 4:2:0
Bit depth : 8 bits
Scan type : Progressive
Bits/(Pixel*Frame) : 0.247
Stream size : 6.65 GiB (80%)
Writing library : x264 core 98 r1649 20cbe10
Encoding settings : cabac=1 / ref=5 / deblock=1:0:0 / analyse=0x3:0x113 / me=umh / subme=7 / psy=1 / psy_rd=1.00:0.00 / mixed_ref=1 / me_range=16 / chroma_me=1 / trellis=1 / 8x8dct=1 / cqm=0 / deadzone=21,11 / fast_pskip=1 / chroma_qp_offset=-2 / threads=12 / sliced_threads=0 / nr=0 / decimate=1 / interlaced=0 / constrained_intra=0 / bframes=3 / b_pyramid=2 / b_adapt=1 / b_bias=0 / direct=1 / weightb=1 / weightp=2 / keyint=250 / keyint_min=25 / scenecut=40 / intra_refresh=0 / rc_lookahead=40 / rc=2pass / mbtree=1 / bitrate=9080 / ratetol=1.0 / qcomp=0.60 / qpmin=10 / qpmax=51 / qpstep=4 / cplxblur=20.0 / qblur=0.5 / ip_ratio=1.40 / aq=1:1.00
Language : English

Audio #1
ID : 2
Format : AC-3
Format/Info : Audio Coding 3
Mode extension : CM (complete main)
Codec ID : A_AC3
Duration : 1h 47mn
Bit rate mode : Constant
Bit rate : 448 Kbps
Channel(s) : 6 channels
Channel positions : Front: L C R, Side: L R, LFE
Sampling rate : 48.0 KHz
Stream size : 344 MiB (4%)
Language : Russian

Audio #2
ID : 3
Format : DTS
Format/Info : Digital Theater Systems
Codec ID : A_DTS
Duration : 1h 47mn
Bit rate mode : Constant
Bit rate : 1 510 Kbps
Channel(s) : 6 channels
Channel positions : Front: L C R, Side: L R, LFE
Sampling rate : 48.0 KHz
Bit depth : 24 bits
Stream size : 1.13 GiB (14%)
Language : English

Text #1
ID : 4
Format : UTF-8
Codec ID : S_TEXT/UTF8
Codec ID/Info : UTF-8 Plain Text
Language : Russian

Text #2
ID : 5
Format : UTF-8
Codec ID : S_TEXT/UTF8
Codec ID/Info : UTF-8 Plain Text
Language : English





Теперь в МОИХ РАЗДАЧАХ ® "море СЕРЕБРА и ЗОЛОТА", соответственно засчитывается
либо половина закаченного
(СЕРЕБРО), либо вообще не идет в зачет скаченное (ЗОЛОТО)!




piratbit.org



Скачать Гринберг через торрент http://pic.kartinco.top/images/6/s6gq8.jpg Скачать фильм Гринберг через торрент бесплантно в хорошем качестве Описание: Роджер Гринберг стоит на перепутье. Потеряв работу, он не слишком торопится с поиском новой. Вместо этого Гринберг возвращается ... 10 10 1
Info! Золотая раздача, скачанное не засчитывается.
Торрент: Зарегистрирован [2010-07-03 11:14] · скачан: 13 раз
Статус: √ проверено
Размер: 8.28 GB
Как cкачать? Как скачать Гринберг через торрент | qTorrent

28-11-2019 20:33  

Отключить всю рекламу на сайте

    Дорогой пользователь! Огромная просьба, поблагодарите релизера, оцените раздачу и оставьте свои комментарий, если Вы скачали Гринберг через торрент бесплатно! Внесите свою лепту в развитие PiratBit!
    Комментировать посты могут только пользователи прошедшие не сложную регистрацию
    Показать сообщения:    

    Гринберг через торрент
    Скачать бесплатно Гринберг
    Гринберг скачать торрент
    Гринберг смотреть онлайн
    Cкачать фильм Гринберг бесплатно
    Гринберг скачать торрент в хорошем качестве
    Гринберг смотреть онлайн бесплатно в хорошем качестве


    Вы не можете начинать темы
    Вы не можете отвечать на сообщения
    Вы не можете редактировать свои сообщения
    Вы не можете удалять свои сообщения
    Вы не можете голосовать в опросах
    Вы не можете прикреплять файлы к сообщениям
    Вы можете скачивать файлы