Лицензия

MVO

1

1 сезон

Лицензия

Лицензия

13

MVO

1 сезон

Deluxe Edition

pack

Рекомендуем

30

Repack

ВАЖНО

ВАЖНО

Ghostwire

RePack

jed

RePack

fifa19

RePack

RDR2

RePack

NEED FOR SPEED™ PAYBACK

RePack

Кинопоиск HD

 Острые козырьки 6 сезон

6 сезон

FAR CRY 6

RePack

Лицензия

MVO

1

1 сезон

1 сезон

Лицензия

  

Александр Попов (Виктор Эйсымонт, Герберт Раппапорт) [1949, СССР, драма, биография, DVDRip от AVP Studio]

Александр Попов через торрент piratbit.org

Размер: 1.46 GB | Добавлен: 7 лет 1 мес. назад | Торрент скачан:7 раз
Смотреть онлайн Александр Попов | Скачать   

22-08-2015 19:27 Александр Попов Скачать торрент  

Александр Попов
Страна: СССР
Производство: Ленфильм

Жанр: драма, биография
Год выпуска: 1949
Продолжительность: 01:26:50

Перевод: Не требуется
Cубтитры: нет
Оригинальная аудиодорожка: русский

Режиссер: Виктор Эйсымонт, Герберт Раппапорт

В ролях:
Николай Черкасов, Александр Борисов, Константин Скоробогатов, Илья Судаков, Юрий Толубеев, Владимир Честноков, Ксения Благовещенская, Леонид Вивьен, Бруно Фрейндлих, Осип Абдулов, Виталий Полицеймако...
Полный список актёров

Описание:
Биографический фильм о жизни и деятельности выдающегося физика-электротехника, изобретателя радиосвязи Александра Семеновича Попова (1859-1905). В процессе научного поиска талант и наблюдательность Попова позволили ему совершить ряд уникальных открытий. Изобретенный им беспроволочный телеграф впервые был применен в тяжелейших условиях полярного севера, спасении людей, оказавшихся на льдине в открытом океане...

Источник: DVD5 R5
Качество видео: DVDRip
Формат видео: AVI
Видео кодек: XviD
Аудио кодек: AC3
Видео: 688x512 (4:3), 25 fps, XviD ~ 2205 kbps avg, 0.250 bit/pixel
Аудио: 48 kHz, Dolby Digital AC3 2.0, 192 kbps

Раздача от:
Общее
Полное имя : Aleksandr.Popov.1949.DVDRip_[New-team]_by_AVP_Studio.avi
Формат : AVI
Формат/Информация : Audio Video Interleave
Размер файла : 1,46 Гбайт
Продолжительность : 1 ч. 26 м.
Общий поток : 2406 Кбит/сек
Программа кодирования : VirtualDubMod 1.5.10.3 | www.virtualdub-fr.org || (build 2550/release)
Библиотека кодирования : VirtualDubMod build 2550/release

Видео
Идентификатор : 0
Формат : MPEG-4 Visual
Профиль формата : Advanced Simple@L5
Параметр BVOP формата : 1
Параметр QPel формата : Нет
Параметр GMC формата : Без точки перехода
Параметр матрицы формата : Выборочная
Идентификатор кодека : XVID
Идентификатор кодека/Подсказка : XviD
Продолжительность : 1 ч. 26 м.
Битрейт : 2205 Кбит/сек
Ширина : 688 пикселей
Высота : 512 пикселей
Соотношение сторон : 4:3
Частота кадров : 25,000 кадров/сек
Цветовое пространство : YUV
Субдискретизация насыщенности : 4:2:0
Битовая глубина : 8 бит
Тип развёртки : Прогрессивная
Метод сжатия : С потерями
Бит/(Пиксели*Кадры) : 0.250
Размер потока : 1,34 Гбайт (92%)
Библиотека кодирования : XviD 73

Аудио
Идентификатор : 1
Формат : AC-3
Формат/Информация : Audio Coding 3
Расширение режима : CM (complete main)
Параметр Endianness формата : Big
Идентификатор кодека : 2000
Продолжительность : 1 ч. 26 м.
Вид битрейта : Постоянный
Битрейт : 192 Кбит/сек
Каналы : 2 канала
Расположение каналов : Front: L R
Частота : 48,0 КГц
Метод сжатия : С потерями
Размер потока : 119 Мбайт (8%)
Выравнивание : Разделение по промежуткам
Продолжительность промежутка : 40 мс. (1,00 видеокадр)
Время предзагрузки промежутка : 500 мс



Скачать Александр Попов через торрент http://s016.radikal.ru/i337/1508/83/67e1d0906b3c.png Скачать, смотреть онлайн Александр Попов бесплантно в хорошем качестве Описание:Биографический фильм о жизни и деятельности выдающегося физика-электротехника, изобретателя радиосвязи Александра Семеновича ... 10 10 2
Торрент: Зарегистрирован [2015-08-22 19:27] · скачан: 7 раз
Статус: √ проверено
Размер: 1.46 GB
Как cкачать? Как скачать Александр Попов через торрент | UTorrent

% Раздел Тема Автор DL S | L
Кино СССР [ 1.46 GB ] Александр Попов | | DVDRip-AVC от AVP Studio AVP Studio Скачать
1 | 0
Кино СССР [ 745 MB ] Александр Попов | | DVDRip от AVP Studio AVP Studio Скачать
1 | 0

28-11-2019 20:33  

Отключить вcю реклaмy на сайте

    Дорогой пользователь! Огромная просьба, поблагодарите релизера, оцените раздачу и оставьте свои комментарий, если Вы скачали Александр Попов через торрент бесплатно!!
    Комментировать посты могут только пользователи прошедшие не сложную регистрацию
    Показать сообщения:    


    Александр Попов через торрент
    Скачать бесплатно Александр Попов
    Александр Попов скачать торрент
    Александр Попов смотреть онлайн
    Cкачать фильм Александр Попов бесплатно
    Александр Попов скачать торрент в хорошем качестве
    Александр Попов смотреть онлайн бесплатно в хорошем качестве
    Вы не можете начинать темы
    Вы не можете отвечать на сообщения
    Вы не можете редактировать свои сообщения
    Вы не можете удалять свои сообщения
    Вы не можете голосовать в опросах
    Вы не можете прикреплять файлы к сообщениям
    Вы можете скачивать файлы