Доктор Стрэндж

Лицензия

Добыча

Дубляж

Дом дракона

1 сезон

Тор

Дубляж

В эфире

Дубляж

Там, где раки поют

MVO

Властелин колец

1 сезон

Deluxe

pack

Рекомендуем

30

Пиратка

ВАЖНО

ВАЖНО

Ghostwire

Пиратка

jed

RePack

nioh2

RePack

RDR2

RePack

NEED FOR SPEED™ PAYBACK

RePack

скачать торрент

Кинопоиск HD

Острые козырьки 6 сезон

6 сезон

FAR CRY 6

RePack

скачать торрент

Лицензия

скачать торрент

MVO

1

1 сезон

скачать торрент

1 сезон

скачать торрент

Лицензия

  

Ночь орла / Night of the Eagle (Сидни Хайерс) [1962, ужасы, BDRip 720p ] VO

Ночь орла через торрент piratbit.org

Размер: 3.21 GB | Добавлен: 7 лет 3 мес. назад | Торрент скачан:1 раз
Смотреть онлайн | Скачать   

24-08-2015 10:50 Ночь орла Скачать торрент  

Название: Ночь орла
Оригинальное название: Night of the Eagle
Год выпуска: 1962
Страна: Великобритания
Жанр: ужасы
Продолжительность: 01:29:31
Перевод: любительский одноголосый

Режиссёр: Сидни Хайерс

В ролях: Питер Уингард, Джанет Блэр, Маргарет Джонстон, Энтони Николлс, Колин Гордон, Кэтлин Байрон, Реджинальд Бекуив, Джесика Даннинг, Норман Бёрд, Джудит Стотт

Описание: Профессор колледжа узнаёт, что его жена на протяжении долгих лет супружеской жизни в тайне от него практикует чёрную магию. Будучи резким противником всякого оккультизма, профессор решает положить конец этой её деятельности. Жена, между тем, уверяет, что использует колдовство, чтобы защитить мужа от происков коллег-конкурентов...



Качество: BDRip 720p Сравнение с исходником
Формат: MKV
Видео кодек: H.264
Аудио кодек: AC3
Видео: MPEG-4 AVC, 4640 Кбит/с, 1280x694, 23,976 кадра/с
Аудио 1: русский, AC3, 192 kbps, 2 ch, 48 kHz [любительский одноголосый, Oneinchnales по переводу linyok]
Аудио 2: английский, AC3, 192 kbps, 2 ch, 48 kHz [оригинал]
Субтитры: русские (linyok)
Общее
Уникальный идентификатор : 229091924412459824694860774616695920154 (0xAC597FEDEEF26EB8B90BE55272ED561A)
Полное имя : D:VideoНочь орла.1962.BDRip.720p.mkv
Формат : Matroska
Версия формата : Version 4 / Version 2
Размер файла : 3,21 Гбайт
Продолжительность : 1 ч. 29 м.
Общий поток : 5126 Кбит/сек
Название фильма : BDRip -- STarankov
Дата кодирования : UTC 2015-08-23 02:01:40
Программа кодирования : mkvmerge v8.2.0 ('World of Adventure') 64bit
Библиотека кодирования : libebml v1.3.1 + libmatroska v1.4.2
DURATION : 01:26:15.466000000
NUMBER_OF_FRAMES : 830
NUMBER_OF_BYTES : 51699
_STATISTICS_WRITING_APP : mkvmerge v8.2.0 ('World of Adventure') 64bit
_STATISTICS_WRITING_DATE_UTC : 2015-08-23 02:01:40
_STATISTICS_TAGS : BPS DURATION NUMBER_OF_FRAMES NUMBER_OF_BYTES

Видео
Идентификатор : 1
Формат : AVC
Формат/Информация : Advanced Video Codec
Профиль формата : High@L4.1
Параметр CABAC формата : Да
Параметр ReFrames формата : 9 кадров
Идентификатор кодека : V_MPEG4/ISO/AVC
Продолжительность : 1 ч. 29 м.
Битрейт : 4640 Кбит/сек
Ширина : 1280 пикселей
Высота : 694 пикселя
Соотношение сторон : 1,85:1
Режим частоты кадров : Постоянный
Частота кадров : 23,976 кадра/сек
Цветовое пространство : YUV
Субдискретизация насыщенности : 4:2:0
Битовая глубина : 8 бит
Тип развёртки : Прогрессивная
Бит/(Пиксели*Кадры) : 0.218
Размер потока : 2,90 Гбайт (91%)
Библиотека кодирования : x264 core 146 r2538 121396c
Настройки программы : cabac=1 / ref=9 / deblock=1:-3:-3 / analyse=0x3:0x113 / me=umh / subme=10 / psy=1 / psy_rd=1.00:0.15 / mixed_ref=1 / me_range=32 / chroma_me=1 / trellis=2 / 8x8dct=1 / cqm=0 / deadzone=21,11 / fast_pskip=1 / chroma_qp_offset=-3 / threads=6 / lookahead_threads=1 / sliced_threads=0 / nr=0 / decimate=1 / interlaced=0 / bluray_compat=0 / constrained_intra=0 / bframes=12 / b_pyramid=2 / b_adapt=2 / b_bias=0 / direct=1 / weightb=1 / open_gop=0 / weightp=2 / keyint=230 / keyint_min=23 / scenecut=40 / intra_refresh=0 / rc_lookahead=40 / rc=crf / mbtree=0 / crf=21.0 / qcomp=0.60 / qpmin=0 / qpmax=69 / qpstep=4 / vbv_maxrate=40000 / vbv_bufsize=50000 / crf_max=0.0 / nal_hrd=none / filler=0 / ip_ratio=1.40 / pb_ratio=1.30 / aq=1:1.00
Язык : English
Default : Да
Forced : Нет
DURATION : 01:29:31.408000000
NUMBER_OF_FRAMES : 128785
NUMBER_OF_BYTES : 3182244207
_STATISTICS_WRITING_APP : mkvmerge v8.2.0 ('World of Adventure') 64bit
_STATISTICS_WRITING_DATE_UTC : 2015-08-23 02:01:40
_STATISTICS_TAGS : BPS DURATION NUMBER_OF_FRAMES NUMBER_OF_BYTES

Аудио #1
Идентификатор : 2
Формат : AC-3
Формат/Информация : Audio Coding 3
Расширение режима : CM (complete main)
Параметр Endianness формата : Big
Идентификатор кодека : A_AC3
Продолжительность : 1 ч. 29 м.
Вид битрейта : Постоянный
Битрейт : 192 Кбит/сек
Каналы : 2 канала
Расположение каналов : Front: L R
Частота : 48,0 КГц
Метод сжатия : С потерями
Размер потока : 123 Мбайт (4%)
Заголовок : любительский одноголосый, Oneinchnales по переводу linyok)
Язык : Russian
Default : Да
Forced : Нет

Аудио #2
Идентификатор : 3
Формат : AC-3
Формат/Информация : Audio Coding 3
Расширение режима : CM (complete main)
Параметр Endianness формата : Big
Идентификатор кодека : A_AC3
Продолжительность : 1 ч. 29 м.
Вид битрейта : Постоянный
Битрейт : 192 Кбит/сек
Каналы : 2 канала
Расположение каналов : Front: L R
Частота : 48,0 КГц
Метод сжатия : С потерями
Размер потока : 123 Мбайт (4%)
Заголовок : Original
Язык : English
Default : Нет
Forced : Нет

Текст
Идентификатор : 4
Формат : UTF-8
Идентификатор кодека : S_TEXT/UTF8
Идентификатор кодека/Информация : UTF-8 Plain Text
Заголовок : русский (linyok)
Язык : Russian
Default : Нет
Forced : Нет



Скачать Ночь орла через торрент http://i69.fastpic.ru/big/2015/0824/1d/5a4b12ec64d32ea002b6e562dfd7011d.jpg Скачать, смотреть онлайн Ночь орла бесплантно в хорошем качестве Описание: Профессор колледжа узнаёт, что его жена на протяжении долгих лет супружеской жизни в тайне от него практикует чёрную магию. ... 10 10 1
Info! Золотая раздача, скачанное не засчитывается.
Торрент: Зарегистрирован [2015-08-24 10:50] · скачан: 1 раз
Статус: √ проверено
Размер: 3.21 GB
Как cкачать? Как скачать Ночь орла через торрент | UTorrent

% Раздел Тема Автор DL S | L
Фильмы [HD 720p, 1080p] (Звук Cam, VO, DVO) [ 7.76 GB ] Ночь орла / Night of the Eagle | | 1080p msltel Скачать
1 | 0
Фильмы до 2000 г. [ 2.02 GB ] Ночь орла / Night of the Eagle | | BDRip AVC msltel Скачать
1 | 0

28-11-2019 20:33  


Отключить вcю реклaмy на сайте, в т.ч. и в плеере онлайн просмотра!

    Дорогой пользователь! Огромная просьба, поблагодарите релизера, оцените раздачу и оставьте свои комментарий, если Вы скачали Ночь орла через торрент бесплатно!!
    Комментировать посты могут только пользователи прошедшие не сложную регистрацию
    Показать сообщения:    


    Ночь орла через торрент
    Скачать бесплатно Ночь орла
    Ночь орла скачать торрент
    Ночь орла смотреть онлайн
    Cкачать фильм Ночь орла бесплатно
    Ночь орла скачать торрент в хорошем качестве
    Ночь орла смотреть онлайн бесплатно в хорошем качестве
    Вы не можете начинать темы
    Вы не можете отвечать на сообщения
    Вы не можете редактировать свои сообщения
    Вы не можете удалять свои сообщения
    Вы не можете голосовать в опросах
    Вы не можете прикреплять файлы к сообщениям
    Вы можете скачивать файлы
    Ночь орла / Night of the Eagle [1962, ужасы, BDRip 720p ] VO смотреть онлайн, скачать торрент picoco.icu