1 сезон

3 сезон

iTunes

1

iTunes

DUB Netflix

iTunes

13

1 сезон

RePack

30

Deluxe

pack

Легкие деньги

ВАЖНО

ИГРА 18+

pack

RePack

MK11

RePack

jed

RePack

fifa19

RePack

RDR2

RePack

NEED FOR SPEED™ PAYBACK

4 сезон

9 сезон

Бесстыжие 9 сезон

Все сериалы

все сериалы на PB.wtf

RePack

FAR CRY 5

Anonymous, добрый день, мы не успеваем до 1 числа собрать деньги на оплату серверов, помогите нам пожалуйста в это трудное время. В качестве благодарности мы отключим Вам всю рекламу на сайте (укажите свой ник в строку Ваше имя)!

×
  
Magnet ссылка

СашаТаня / Сезон: 4 / Серии 1-8 из ? (Сергей Казачанский , Михаил Старчак , Андрей Богатырев) [2015, ситком, скетчком, SATRip] Оригинал piratbit.org

СашаТаня через торрент piratbit.org

Размер: 2.26 GB | Добавлен: 5 лет 9 мес. назад | Торрент скачан:261 раз
Скачать  

25-08-2015 14:55 СашаТаня Скачать торрент  


Год выпуска: 2015
Страна: Россия
Жанр: ситком, скетчком
Продолжительность: 1~ 00:21:44
Перевод: Оригинал
Сезон: 4
Кол-во Серий: 1-8 из ?
Режиссер: Сергей Казачанский , Михаил Старчак , Андрей Богатырев
В ролях: Андрей Гайдулян (Саша), Валентина Рубцова (Таня), Алексей Климушкин (Сильвестр Андреевич Сергеев), Андрей Свиридов (Гена), Алексей Гаврилов (Гоша Рудковский), Лариса Баранова (Лиля Волкова), Виталий Гогунский, Арарат Кещян, Наталья Ходус, Виктор Полторацкий (финансовый директор Сергей Геннадьевич), Павел Кассинский (сосед), Александр Новик (менеджер)
Описание:
Сериал про молодую семью Сергеевых. После окончания института Саша и Таня вместе со своим маленьким сыном Алёшкой решили пожить самостоятельно и сняли квартиру в Алтуфьево. Райончик конечно не из лучших, но зато и цены на жилье тут доступные, ведь Саша не собирается пользоваться миллиардами своего папы. Но Сильвестр Андреевич не собирается так просто отставать от молодых и тем более от своего внука. Поэтому он поселился по соседству, только в просторной и роскошной квартире.

Качество: SATRip
Формат: AVI
Видео кодек: XviD
Аудио кодек: MP3
Видео: XviD, 720x400 (16:9), 1644 kbps, 25 fps, 0,228 bpp
Аудио: MP3 / 2.0 / 48 kHz / 192 kbps

Код:

General
Complete name                            : E:\торрент\SashaTanya.(S04) 2015.SATRip\SashaTanja.s4.01.SATRip.avi
Format                                   : AVI
Format/Info                              : Audio Video Interleave
File size                                : 287 MiB
Duration                                 : 21mn 44s
Overall bit rate                         : 1 846 Kbps
Writing application                      : VirtualDubMod 1.5.10.3 (build 2550/release)
Writing library                          : VirtualDubMod build 2550/release

Video
ID                                       : 0
Format                                   : MPEG-4 Visual
Format profile                           : Advanced Simple@L5
Format settings, BVOP                    : 2
Format settings, QPel                    : No
Format settings, GMC                     : No warppoints
Format settings, Matrix                  : Default (H.263)
Muxing mode                              : Packed bitstream
Codec ID                                 : XVID
Codec ID/Hint                            : XviD
Duration                                 : 21mn 44s
Bit rate                                 : 1 644 Kbps
Width                                    : 720 pixels
Height                                   : 400 pixels
Display aspect ratio                     : 16:9
Frame rate                               : 25.000 fps
Color space                              : YUV
Chroma subsampling                       : 4:2:0
Bit depth                                : 8 bits
Scan type                                : Progressive
Compression mode                         : Lossy
Bits/(Pixel*Frame)                       : 0.228
Stream size                              : 256 MiB (89%)
Writing library                          : XviD 67

Audio
ID                                       : 1
Format                                   : MPEG Audio
Format version                           : Version 1
Format profile                           : Layer 3
Mode                                     : Joint stereo
Mode extension                           : MS Stereo
Codec ID                                 : 55
Codec ID/Hint                            : MP3
Duration                                 : 21mn 44s
Bit rate mode                            : Constant
Bit rate                                 : 192 Kbps
Channel(s)                               : 2 channels
Sampling rate                            : 48.0 KHz
Compression mode                         : Lossy
Stream size                              : 29.9 MiB (10%)
Alignment                                : Split accross interleaves
Interleave, duration                     : 40 ms (1.00 video frame)
Interleave, preload duration             : 500 ms

Код:

Внимание! Раздача ведётся путём добавления новых серий; при каждом добавлении создаётся новый торрент. Чтобы начать докачку новой серии, пользователям необходимо сделать следующее:
(1) остановить скачивание,
(2) удалить старый торрент у себя из клиента (старые серии удалять не надо),
(3) скачать новый торрент и запустить его у себя в клиенте вместо старого, при этом указать клиенту путь в старую папку куда и должно происходить скачивание новых серий.
Ваш клиент при этом должен произвести хеширование (проверку) старой папки (если не производит сам - помогите ему сделать это), и будет докачивать только те серии которых у вас ещё нет. Старые серии при этом не удаляются, а продолжают раздаваться!
Eсли вы уже удалили старые серии, то предотвратить повторную закачку старых серий можно, отжав галочку в соответсвующих местах при запуске нового торрента. По возможности, желательно не удалять старые серии как можно дольше чтобы релизёр не столько продолжал раздавать старые серии, а смог сконцентрироваться на новых.


3.09 - Добавлена 8-я Серия. Просьба перехешировать торрент-файл.piratbit.org



Скачать СашаТаня через торрент https://pic1.kartinco.top/images/10/i4erl.jpg Скачать фильм СашаТаня через торрент бесплантно в хорошем качестве Описание: Сериал про молодую семью Сергеевых. После окончания института Саша и Таня вместе со своим маленьким сыном Алёшкой решили пожить ... 7.6 10 40
Info! Золотая раздача, скачанное не засчитывается.
Торрент: Зарегистрирован [2015-09-03 16:58] · скачан: 261 раз
Статус: √ проверено
Размер: 2.26 GB
Как cкачать? Как скачать СашаТаня через торрент | UTorrent



Последний раз редактировалось: Newton5 (2015-09-03 16:58), всего редактировалось 5 раз(а)

28-11-2019 20:33  

Отключить всю рекламу на сайте

31-08-2015 08:47 СашаТаня Скачать торрент  

На офсайте только стартовл третий сезон, а здесь из будущего уже четвёртый сезон выложили. Вот она сила интернета... :rofle: piratbit.org



08-09-2015 10:19 СашаТаня Скачать торрент  

ачё больше серий небудет обычно по 16 штукpiratbit.org



    Дорогой пользователь! Огромная просьба, поблагодарите релизера, оцените раздачу и оставьте свои комментарий, если Вы скачали СашаТаня через торрент бесплатно! Внесите свою лепту в развитие PiratBit!
    Комментировать посты могут только пользователи прошедшие не сложную регистрацию
    Показать сообщения:    

    СашаТаня через торрент
    Скачать бесплатно СашаТаня
    СашаТаня скачать торрент
    СашаТаня смотреть онлайн
    Cкачать фильм СашаТаня бесплатно
    СашаТаня скачать торрент в хорошем качестве
    СашаТаня смотреть онлайн бесплатно в хорошем качестве


    Вы не можете начинать темы
    Вы не можете отвечать на сообщения
    Вы не можете редактировать свои сообщения
    Вы не можете удалять свои сообщения
    Вы не можете голосовать в опросах
    Вы не можете прикреплять файлы к сообщениям
    Вы можете скачивать файлы