2 сезон

iTunes

WEBRip

1

2 сезон

iTunes

1 сезон

1 сезон

RePack

30

Ultimate

ВАЖНО

ИГРА 18+

pack

RePack

MK11
pack

Легкие деньги

RePack

jed

RePack

fifa19

RePack

RDR2

RePack

NEED FOR SPEED™ PAYBACK

4 сезон

9 сезон

Бесстыжие 9 сезон

Все сериалы

все сериалы на PB.wtf

RePack

FAR CRY 5

Anonymous, добрый вечер, мы не успеваем собрать деньги на оплату серверов за февраль, помогите нам пожалуйста в это трудное время. В качестве благодарности мы отключим Вам всю рекламу на сайте (укажите свой ник в строку Ваше имя)!

×
  
Magnet ссылка

Ломбард (Любомир Левицький) [2013 г., комедия, криминал, SATRip, Дубляж] piratbit.org

Ломбард через торрент piratbit.org

Размер: 1.09 GB | Добавлен: 5 лет 6 мес. назад | Торрент скачан:45 раз
Скачать  

26-08-2015 08:23 Ломбард Скачать торрент  

Ломбард
Год выпуска: 2013
Страна: Украина
Жанр: комедия, криминал
Продолжительность: 01:24:58
Перевод: Дубляж (Украинский)
Субтитры: Нет

Режиссер: Любомир Левицький
Продюссер: Андрей Савенко
Сценарий: Любомир Левицький

Бюджет: 3000000$
Премьера в мире: 19 сентября 2013




В ролях: Актори: Денис Нікіфоров, Павло Піскун, Дені Дадаєв, Валерій Легін, Андрій Бурим, Ольга Сторожук, Василіса Фролова, Ігор Гнезділов, Сергій Романюк, Константин Корецький, Сергій Стахов, Анатолій Зіновенко, Максим Паньків, Володимир Беляєв, Анатолій Приймак, Сергій Шляхтюк, Альона Мусієнко, Віталій Аниськов

Описание: Головні герої — двоє лембергських хлопців, Марк і Яша, добре знають вулицю і вміють отримувати від неї все, що треба для життя. Марка називають благородним бандитом, а Яша навпаки все вирішує за допомогою інтелекту. Пройшовши складні перипетії в юності, брати починають шукати стабільність. Саме у один з таких днів вони отримують звістку про спадок. Ним виявляється відомий в місті ломбард, а його власником на даний момент є їх рідний дядько Фелікс. Прийшовши в ломбард за своїм, хлопці отримують різку відсіч. Марк і Яша приймають рішення: будь-яким шляхом забрати спадок. Їх погляди розходяться, і кожен придумує свій план…

Качество: SATRip
Формат: AVI
Видео кодек: XviD
Аудио кодек: MP2
Видео: MPEG4, XviD, 704x304 (2.35:1), 25.000 fps, 1 640 Kbps (0.306 bit/pixel)
Аудио: MP2, 48.0 KHz, 2 ch, 192 Kbps, CBR
General
Complete name : D:\Ломбард (2013) SATRip [ukr].avi
Format : AVI
Format/Info : Audio Video Interleave
File size : 1.09 GiB
Duration : 1h 24mn
Overall bit rate : 1 841 Kbps
Writing application : VirtualDubMod 1.5.10.3 | www.virtualdub-fr.org || (build 2550/release)
Writing library : VirtualDubMod build 2550/release

Video
ID : 0
Format : MPEG-4 Visual
Format profile : Advanced Simple@L5
Format settings, BVOP : 2
Format settings, QPel : No
Format settings, GMC : No warppoints
Format settings, Matrix : Default (MPEG)
Muxing mode : Packed bitstream
Codec ID : XVID
Codec ID/Hint : XviD
Duration : 1h 24mn
Bit rate : 1 640 Kbps
Width : 704 pixels
Height : 304 pixels
Display aspect ratio : 2.35:1
Frame rate : 25.000 fps
Color space : YUV
Chroma subsampling : 4:2:0
Bit depth : 8 bits
Scan type : Progressive
Compression mode : Lossy
Bits/(Pixel*Frame) : 0.306
Stream size : 997 MiB (89%)
Writing library : XviD 1.2.1 (UTC 2008-12-04)

Audio
ID : 1
Format : MPEG Audio
Format version : Version 1
Format profile : Layer 2
Codec ID : 50
Duration : 1h 24mn
Bit rate mode : Constant
Bit rate : 192 Kbps
Channel(s) : 2 channels
Sampling rate : 48.0 KHz
Compression mode : Lossy
Stream size : 117 MiB (10%)
Alignment : Aligned on interleaves
Interleave, duration : 40 ms (1.00 video frame)
Interleave, preload duration : 504 ms














piratbit.org



Скачать Ломбард через торрент https://pic.kartinco.top/images/11/n5no5.jpg Скачать фильм Ломбард через торрент бесплантно в хорошем качестве Описание: Головні герої — двоє лембергських хлопців, Марк і Яша, добре знають вулицю і вміють отримувати від неї все, що треба для життя. ... 8.1 10 7
Info! Золотая раздача, скачанное не засчитывается.
Торрент: Зарегистрирован [2015-08-26 08:23] · скачан: 45 раз
Статус: √ проверено
Размер: 1.09 GB
Как cкачать? Как скачать Ломбард через торрент | UTorrent

% Раздел Тема Автор DL S | L
T Фильмы (мультфильмы) cо спонсором показа (Новинки AVI/MKV) [ 3.89 GB ] Как преодолеть разрыв / Single und begehrt / Soltera Codiciada [2018 WEB-DL 720p] MVO ["Синема УС"] bober100 Скачать
1 | 0
T Фильмы (мультфильмы) cо спонсором показа (Новинки AVI/MKV) [ 1.37 GB ] Как преодолеть разрыв / Single und begehrt / Soltera Codiciada [2018 WEB-DLRip] MVO ["Синема УС"] bober100 Скачать
1 | 0
Фильмы [HD 720p, 1080p] (Хороший звук DUB, MVO) [ 4.83 GB ] Хроники ломбарда / Pawn Shop Chronicles [2013 BDRip 720p от Leonardo] DUB+AVO Ворон Скачать
1 | 0
Отечественный Рэп, Хип-Хоп [ 83 MB ] Кровосток - Ломбард 2015 / MP3 / 320 kbps / Rap / Hip-Hop to4ka Скачать
1 | 0
Наши сериалы [ 5.54 GB ] Хроники ломбарда / Сезон: 1 / Серии 1-21 из 30 [2014 Россия псевдодокументал SATRip) GEKADOL Скачать
1 | 0
Фильмы 2013 [DVDrip, WEB-DLRip, HDrip] [ 2.06 GB ] Хроники ломбарда / Pawn Shop Chronicles [2013 HDRip ] [Студия "Пифагор"] кэп Скачать
1 | 0
Фильмы [HD 720p, 1080p] (Хороший звук DUB, MVO) [ 5.3 GB ] Хроники ломбарда / Pawn Shop Chronicles [2013 BDRip 720p ] [Студия "Пифагор"] Anonymous Скачать
1 | 0

28-11-2019 20:33  

Отключить всю рекламу на сайте

26-08-2015 13:27 Ломбард Скачать торрент  

Так на Русском или на украинском языке?piratbit.org
!shuller писал(а):

украинском



27-08-2015 08:12 Ломбард Скачать торрент  

Цитата:

так тут же один патрон

sarcasticpiratbit.org



29-08-2015 09:00 Ломбард Скачать торрент  

forbid, а чего перевод не сделал?piratbit.org



06-09-2015 19:40 Ломбард Скачать торрент  

ВЕселий фільм, 9\10, озвучка дуже порадувалаpiratbit.org



    Дорогой пользователь! Огромная просьба, поблагодарите релизера, оцените раздачу и оставьте свои комментарий, если Вы скачали Ломбард через торрент бесплатно! Внесите свою лепту в развитие PiratBit!
    Комментировать посты могут только пользователи прошедшие не сложную регистрацию
    Показать сообщения:    

    Ломбард через торрент
    Скачать бесплатно Ломбард
    Ломбард скачать торрент
    Ломбард смотреть онлайн
    Cкачать фильм Ломбард бесплатно
    Ломбард скачать торрент в хорошем качестве
    Ломбард смотреть онлайн бесплатно в хорошем качестве


    Вы не можете начинать темы
    Вы не можете отвечать на сообщения
    Вы не можете редактировать свои сообщения
    Вы не можете удалять свои сообщения
    Вы не можете голосовать в опросах
    Вы не можете прикреплять файлы к сообщениям
    Вы можете скачивать файлы