1 сезон

1 сезон

iTunes

1

КиноПоиск HD

Кинопоиск HD

iTunes

13

1 сезон

RePack

30

Deluxe

ВАЖНО

ИГРА 18+

pack

RePack

MK11
pack

Легкие деньги

RePack

jed

RePack

fifa19

RePack

RDR2

RePack

NEED FOR SPEED™ PAYBACK

4 сезон

9 сезон

Бесстыжие 9 сезон

Все сериалы

все сериалы на PB.wtf

RePack

FAR CRY 5
  
Magnet ссылка

Ужас Амитивилля / The Amityville Horror (Эндрю Дуглас) [2005 г., ужасы, триллер, драма, детектив, HDRip by Dean24] (Профессиональный двухголосый) piratbit.org

Ужас Амитивилля через торрент piratbit.org

Размер: 1.46 GB | Добавлен: 5 лет 8 мес. назад | Торрент скачан:78 раз
Скачать  

29-08-2015 16:16 Ужас Амитивилля Скачать торрент  

Ужас Амитивилля / The Amityville HorrorГод выпуска: 2005
Страна: США
Жанр: ужасы, триллер, драма, детектив
Продолжительность: 01:29:22
Перевод: Профессиональный двухголосый | Tycoon
Субтитры: Нет

Режиссер: Эндрю Дуглас
Продюссер: Майкл Бэй, Эндрю Форм, Мэттью Кохан
Сценарий: Скотт Козар, Сэндор Стерн, Джордж Лутс

Бюджет: $19 000 000
Премьера в мире: 7 апреля 2005



В ролях: Райан Рейнольдс, Мелисса Джордж, Джесси Джеймс младший, Джимми Беннетт, Хлоя Морец, Рейчел Николс, Филип Бейкер Холл, Изабелль Коннер, Брендан Дональдсон, Кара Рубео

Описание: 14 ноября 1974 года в полицейский участок поступил ужасный звонок: в резиденции семьи Де Фо шесть человек застрелено в своих постелях. Рональд Де Фо признался в убийстве своих родителей и братьев, объяснив, что некие «голоса» велели ему совершить убийства.
Год спустя Джордж и Кейти Латс с тремя детьми переезжают в этот дом, полагая, что сбылась их заветная мечта. Они еще не знают, что их счастье под угрозой страшной демонической силы, способной его разрушить. Ужас вновь охватывает Амитивилль…

Качество: HDRip | BDRip 720p
Формат: AVI
Видео кодек: XviD
Аудио кодек: AC3
Видео: 720x304 (2.37:1), 23.976 fps, XviD build 50 ~1949 kbps avg, 0.37 bit/pixel
Аудио#1: 48 kHz, AC3 Dolby Digital, 3/2 (L,C,R,l,r) + LFE ch, ~384 kbps



Автор рипа: Dean24

Общее
Полное имя : D:\Мои документы\Фильмы\Сайт\The.Amityville.Horror.HDRip.avi
Формат : AVI
Формат/Информация : Audio Video Interleave
Размер файла : 1,46 Гбайт
Продолжительность : 1 ч. 29 м.
Общий поток : 2343 Кбит/сек
Программа кодирования : VirtualDubMod 1.5.10.3 | (build 2550/release)
Библиотека кодирования : VirtualDubMod build 2550/release

Видео
Идентификатор : 0
Формат : MPEG-4 Visual
Профиль формата : Advanced Simple@L5
Параметр BVOP формата : 3
Параметр QPel формата : Нет
Параметр GMC формата : Без точки перехода
Параметр матрицы формата : Default (H.263)
Идентификатор кодека : XVID
Идентификатор кодека/Подсказка : XviD
Продолжительность : 1 ч. 29 м.
Битрейт : 1950 Кбит/сек
Ширина : 720 пикселей
Высота : 304 пикселя
Соотношение сторон : 2,35:1
Частота кадров : 23,976 кадра/сек
Цветовое пространство : YUV
Субдискретизация насыщенности : 4:2:0
Битовая глубина : 8 бит
Тип развёртки : Прогрессивная
Метод сжатия : С потерями
Бит/(Пиксели*Кадры) : 0.371
Размер потока : 1,22 Гбайт (83%)
Библиотека кодирования : XviD 1.2.1 (UTC 2008-12-04)

Аудио
Идентификатор : 1
Формат : AC-3
Формат/Информация : Audio Coding 3
Расширение режима : CM (complete main)
Параметр Endianness формата : Big
Идентификатор кодека : 2000
Продолжительность : 1 ч. 29 м.
Вид битрейта : Постоянный
Битрейт : 384 Кбит/сек
Каналы : 6 каналов
Расположение каналов : Front: L C R, Side: L R, LFE
Частота : 48,0 КГц
Битовая глубина : 16 бит
Метод сжатия : С потерями
Размер потока : 245 Мбайт (16%)
Выравнивание : Разделение по промежуткам
Продолжительность промежутка : 42 мс. (1,00 видеокадр)
Время предзагрузки промежутка : 500 мс.

piratbit.org



Скачать Ужас Амитивилля через торрент http://i71.fastpic.ru/big/2015/0829/7f/45521c53493831d3486bf9717c0df37f.jpg Скачать фильм Ужас Амитивилля через торрент бесплантно в хорошем качестве Описание: 14 ноября 1974 года в полицейский участок поступил ужасный звонок: в резиденции семьи Де Фо шесть человек застрелено в своих ... 10 10 5
Торрент: Зарегистрирован [2015-08-29 16:16] · скачан: 78 раз
Статус: √ проверено
Размер: 1.46 GB
Как cкачать? Как скачать Ужас Амитивилля через торрент | UTorrent

% Раздел Тема Автор DL S | L
Фильмы (Blu-ray, BD-Remux, HDDVD) [ 25.24 GB ] Ужас Амитивилля / The Amityville Horror [2005 ремейк реальные события BDRemux 1080p] US Transfer Russian Mafia Скачать
1 | 0
Научно-популярные фильмы [ 480 MB ] Настоящий ужас Амитивилля / The Real Amityville Horror [2005 документальный TVRip] Ворон Скачать
1 | 0
Фильмы [HD 720p, 1080p] (Хороший звук DUB, MVO) [ 8.45 GB ] Ужас Амитивилля / The Amityville Horror [2005 BDRip 1080p] DUB + DVO Tycoon + Sub rus + original eng Ворон Скачать
1 | 0
Фильмы 2001-2005 [ 2.18 GB ] Ужас Амитивилля / The Amityville Horror [2005 HDRip-AVC] от R.G. B-kpo V@DILA Скачать
1 | 0
Фильмы 2001-2005 [ 1.45 GB ] Ужас Амитивилля / The Amityville Horror [2005 BDRip] F.U. Скачать
1 | 0
Фильмы 2001-2005 [ 2.46 GB ] Ужас Амитивилля / The Amityville Horror [2004 BDRip-AVC] -=BIGBOSS=- Скачать
1 | 0

28-11-2019 20:33  

Отключить всю рекламу на сайте

    Дорогой пользователь! Огромная просьба, поблагодарите релизера, оцените раздачу и оставьте свои комментарий, если Вы скачали Ужас Амитивилля через торрент бесплатно! Внесите свою лепту в развитие PiratBit!
    Комментировать посты могут только пользователи прошедшие не сложную регистрацию
    Показать сообщения:    

    Ужас Амитивилля через торрент
    Скачать бесплатно Ужас Амитивилля
    Ужас Амитивилля скачать торрент
    Ужас Амитивилля смотреть онлайн
    Cкачать фильм Ужас Амитивилля бесплатно
    Ужас Амитивилля скачать торрент в хорошем качестве
    Ужас Амитивилля смотреть онлайн бесплатно в хорошем качестве


    Вы не можете начинать темы
    Вы не можете отвечать на сообщения
    Вы не можете редактировать свои сообщения
    Вы не можете удалять свои сообщения
    Вы не можете голосовать в опросах
    Вы не можете прикреплять файлы к сообщениям
    Вы можете скачивать файлы