Присоединяйтесь к нам в Telegram!, здесь всегда актуальный адрес сайта, оперативная поддержка и многое другое!!

>

5.9

iTunes

7.4

iTunes

9.4

1 сезон

1

7.4

2 сезон

7.2

iTunes

7.3

1 сезон

13

6.1

iTunes

8.3

GOG

30

ULTIMATE

pack

9.9

Лицензия

ВАЖНО

ИГРА 18+

pack

7.3

RePack

MK11

7.7

RePack

jed

7.8

RePack

fifa19

8.5

RePack

RDR2

RePack

NEED FOR SPEED™ PAYBACK

5 сезон

9 сезон

Бесстыжие 9 сезон

Все сериалы

все сериалы на PB.wtf

RePack

FAR CRY 5

Anonymous, доброе утро, мы катастрофически не успеваем собрать деньги на оплату серверов, помогите нам пожалуйста 5,10,15р., для нас важна любая помощь . В качестве благодарности мы отключим Вам всю рекламу на сайте (укажите свой ник в строку Ваше имя)!

×
  
Magnet ссылка

Эйнджел / Тихие омуты / Angel / Still waters (Рей Бердис) [2015, триллер, WEB-DLRip, Любительский (двухголосый) [den904, DeadSno] piratbit.org

Эйнджел через торрент piratbit.org

Размер: 1.4 GB | Добавлен: 6 лет 2 мес. назад | Торрент скачан:120 раз
Смотреть онлайн Эйнджел | Скачать    Ребята, помогите собрать деньги на оплату серверов!!!

29-08-2015 18:54 Эйнджел Скачать торрент  


Эйнджел / Тихие омуты / Angel / Still waters


ИНФОРМАЦИЯ:
Год выпуска:2015
Страна: Великобритания
Жанр: триллер
Продолжительность: 01:23:21
Перевод: Любительский (двухголосый) [den904, DeadSno]
Режиссер: Рей Бердис

В Ролях:


Джон Ханна (Lapslie), Марго Стилли (Bradbury), Карел Роден (Stevens), Марк Бердис (Mark), Дженн Мюррэй (Angel), Питер-Хьюго Дэйли (Uncle Tommy), Джорджина Хейл (Grandma), Джейсон Мацца (George), Кристофер Сиуреф (Colima), Берил Несбитт (Violet), Эндрю Вудалл (Lord Hall), Дэвид Эллиот (PC Dunne)

Описание:
В небольшом английском городке живет милая девушка Эйнджел, чисто ангел во плоти, тихая и робкая, очень любящая свою бабушку. Но никто не знает, что, в прошлом, ее бабушка была ораганизатором детских вечереинок для высокопоставленных педофилов....Основано на книге Найджела Макрери "Средоточие зла".

  • Мировая премьера:20 июля 2015

    ТЕХ.ДАННЫЕ:
    Качество: WEB-DLRip
    Формат: AVI
    Видео кодек: XviD
    Аудио кодек: AC3
    Видео: XviD, 720x304 (2.35:1), 1914 kbps, 24 fps, 0,364 bpp
    Аудио №1: AC3 / 2.0 / 48 kHz / 192 kbps / [den904 & DeadSno]
    Аудио №2: AC3 / 2.0 / 48 kHz / 192 kbps / английский


    Код:

    Общее
    Полное имя                               : D:\Торенты\Angel.2015.L2.1400MB.avi
    Формат                                   : AVI
    Формат/Информация                        : Audio Video Interleave
    Размер файла                             : 1,40 Гбайт
    Продолжительность                        : 1 ч. 23 м.
    Общий поток                              : 2405 Кбит/сек
    Программа кодирования                    : VirtualDubMod 1.5.10.2 (build 2540/release)
    Библиотека кодирования                   : VirtualDubMod build 2540/release

    Видео
    Идентификатор                            : 0
    Формат                                   : MPEG-4 Visual
    Профиль формата                          : Advanced Simple@L5
    Параметр BVOP формата                    : 2
    Параметр QPel формата                    : Нет
    Параметр GMC формата                     : Без точки перехода
    Параметр матрицы формата                 : Default (H.263)
    Режим смешивания                         : Сжатый битовый поток
    Идентификатор кодека                     : XVID
    Идентификатор кодека/Подсказка           : XviD
    Продолжительность                        : 1 ч. 23 м.
    Битрейт                                  : 1915 Кбит/сек
    Ширина                                   : 720 пикселей
    Высота                                   : 304 пикселя
    Соотношение сторон                       : 2,35:1
    Частота кадров                           : 24,000 кадра/сек
    Цветовое пространство                    : YUV
    Субдискретизация насыщенности            : 4:2:0
    Битовая глубина                          : 8 бит
    Тип развёртки                            : Прогрессивная
    Метод сжатия                             : С потерями
    Бит/(Пиксели*Кадры)                      : 0.364
    Размер потока                            : 1,11 Гбайт (80%)
    Библиотека кодирования                   : XviD 73

    Аудио #1
    Идентификатор                            : 1
    Формат                                   : AC-3
    Формат/Информация                        : Audio Coding 3
    Расширение режима                        : CM (complete main)
    Параметр Endianness формата              : Big
    Идентификатор кодека                     : 2000
    Продолжительность                        : 1 ч. 23 м.
    Вид битрейта                             : Постоянный
    Битрейт                                  : 192 Кбит/сек
    Каналы                                   : 2 канала
    Расположение каналов                     : Front: L R
    Частота                                  : 48,0 КГц
    Битовая глубина                          : 16 бит
    Метод сжатия                             : С потерями
    Размер потока                            : 114 Мбайт (8%)
    Выравнивание                             : Разделение по промежуткам

    Аудио #2
    Идентификатор                            : 2
    Формат                                   : AC-3
    Формат/Информация                        : Audio Coding 3
    Расширение режима                        : CM (complete main)
    Параметр Endianness формата              : Big
    Идентификатор кодека                     : 2000
    Продолжительность                        : 1 ч. 23 м.
    Вид битрейта                             : Постоянный
    Битрейт                                  : 192 Кбит/сек
    Каналы                                   : 2 канала
    Расположение каналов                     : Front: L R
    Частота                                  : 48,0 КГц
    Битовая глубина                          : 16 бит
    Метод сжатия                             : С потерями
    Размер потока                            : 114 Мбайт (8%)
    Выравнивание                             : Разделение по промежуткам

    Скриншоты:


    © Оформление by Ворон
    piratbit.org



  • Скачать Эйнджел через торрент https://pic1.kartinco.top/images/61/ordi9.jpg Скачать, смотреть онлайн Эйнджел бесплантно в хорошем качестве Описание: В небольшом английском городке живет милая девушка Эйнджел, чисто ангел во плоти, тихая и робкая, очень любящая свою бабушку. Но ... 10 10 5
    Торрент: Зарегистрирован [2015-08-29 18:54] · скачан: 120 раз
    Статус: T временная
    Размер: 1.4 GB
    Как cкачать? Как скачать Эйнджел через торрент | UTorrent

    28-11-2019 20:33  

    Отключить всю рекламу на сайте

      Дорогой пользователь! Огромная просьба, поблагодарите релизера, оцените раздачу и оставьте свои комментарий, если Вы скачали Эйнджел через торрент бесплатно!
      Комментировать посты могут только пользователи прошедшие не сложную регистрацию
      Показать сообщения:    

      Эйнджел через торрент
      Скачать бесплатно Эйнджел
      Эйнджел скачать торрент
      Эйнджел смотреть онлайн
      Cкачать фильм Эйнджел бесплатно
      Эйнджел скачать торрент в хорошем качестве
      Эйнджел смотреть онлайн бесплатно в хорошем качестве


      Вы не можете начинать темы
      Вы не можете отвечать на сообщения
      Вы не можете редактировать свои сообщения
      Вы не можете удалять свои сообщения
      Вы не можете голосовать в опросах
      Вы не можете прикреплять файлы к сообщениям
      Вы можете скачивать файлы