Доктор Стрэндж

Лицензия

Добыча

MVO

Дом дракона

1 сезон

Тор

Лицензия

Мэверик

Лицензия

Там, где раки поют

MVO

Властелин колец

1 сезон

Ultimate

pack

Рекомендуем

30

Repack

ВАЖНО

ВАЖНО

Ghostwire

RePack

jed

RePack

nioh2

RePack

RDR2

RePack

NEED FOR SPEED™ PAYBACK

RePack

скачать торрент

Кинопоиск HD

Острые козырьки 6 сезон

6 сезон

FAR CRY 6

RePack

скачать торрент

Лицензия

скачать торрент

MVO

1

1 сезон

скачать торрент

1 сезон

скачать торрент

Лицензия

  

Случайная встреча (Игорь Савченко) [1936, мелодрама, комедия, DVDRip от AVP Studio]

Случайная встреча через торрент piratbit.org

Размер: 742 MB | Добавлен: 7 лет 1 мес. назад | Торрент скачан:5 раз
Смотреть онлайн Случайная встреча | Скачать   

30-08-2015 09:12 Случайная встреча Скачать торрент  

Случайная встреча
Страна: СССР
Производство: Межрабпомфильм

Жанр: мелодрама, комедия
Год выпуска: 1936
Продолжительность: 01:02:24

Перевод: Не требуется
Cубтитры: нет
Оригинальная аудиодорожка: русский

Режиссер: Игорь Савченко

В ролях:
Галина Пашкова, Евгений Самойлов, Пётр Савин, Иван Лобызовский, Константин Нассонов, Сергей Никонов, Валентина Ивашёва, Николай Вильдгрубе...
Полный список актёров

Описание:
На комбинат детских игрушек, где работает ударница производства Ирина, приезжает новый инструктор физкультуры Гриша (Евгений Самойлов). Обнаружив у девушки выдающиеся способности спортсменки, он начинает готовить ее к всесоюзным соревнованиям в Москве. Их дружба переходит в любовь и очень скоро завершается браком. Сообщение Ирины о том, что у них будет ребенок, муж встречает бурей негодования: вся их совместная работа оказывается бессмысленной. Ирина уходит от мужа и решает воспитывать ребенка одна. Коллектив комбината с сочувствием относится к молодой матери, помогает ей перенести душевную травму и всячески способствует ей в занятиях спортом. На всесоюзных соревнованиях в Москве Ирина занимает первое место.

Источник: DVD5 R5
Качество видео: DVDRip
Формат видео: AVI
Видео кодек: XviD
Аудио кодек: MP3
Видео: 640x480 (4:3), 25 fps, XviD ~ 1526 kbps avg, 0.199 bit/pixel
Аудио: 48 kHz, MP3 2.0, 128 kbps

Раздача от:
Общее
Полное имя : Sluchaynaya.vstrecha.1936.DVDRip-745_[New-team]_by_AVP_Studio.avi
Формат : AVI
Формат/Информация : Audio Video Interleave
Размер файла : 742 Мбайт
Продолжительность : 1 ч. 2 м.
Общий поток : 1663 Кбит/сек
Программа кодирования : VirtualDubMod 1.5.10.3 | www.virtualdub-fr.org || (build 2550/release)
Библиотека кодирования : VirtualDubMod build 2550/release

Видео
Идентификатор : 0
Формат : MPEG-4 Visual
Профиль формата : Advanced Simple@L5
Параметр BVOP формата : 1
Параметр QPel формата : Нет
Параметр GMC формата : Без точки перехода
Параметр матрицы формата : Выборочная
Идентификатор кодека : XVID
Идентификатор кодека/Подсказка : XviD
Продолжительность : 1 ч. 2 м.
Битрейт : 1526 Кбит/сек
Ширина : 640 пикселей
Высота : 480 пикселей
Соотношение сторон : 4:3
Частота кадров : 25,000 кадров/сек
Цветовое пространство : YUV
Субдискретизация насыщенности : 4:2:0
Битовая глубина : 8 бит
Тип развёртки : Прогрессивная
Метод сжатия : С потерями
Бит/(Пиксели*Кадры) : 0.199
Размер потока : 681 Мбайт (92%)
Библиотека кодирования : XviD 73

Аудио
Идентификатор : 1
Формат : MPEG Audio
Версия формата : Version 1
Профиль формата : Layer 3
Идентификатор кодека : 55
Идентификатор кодека/Подсказка : MP3
Продолжительность : 1 ч. 2 м.
Вид битрейта : Постоянный
Битрейт : 128 Кбит/сек
Каналы : 2 канала
Частота : 48,0 КГц
Метод сжатия : С потерями
Размер потока : 57,1 Мбайт (8%)
Выравнивание : Соединение по промежуткам
Продолжительность промежутка : 40 мс. (1,00 видеокадр)
Время предзагрузки промежутка : 504 мс.
Библиотека кодирования : LAME3.99r
Настройки программы : -m s -V 4 -q 2 -lowpass 17 -b 128



Скачать Случайная встреча через торрент http://s020.radikal.ru/i717/1508/66/7e1d86501f75.png Скачать, смотреть онлайн Случайная встреча бесплантно в хорошем качестве Описание:На комбинат детских игрушек, где работает ударница производства Ирина, приезжает новый инструктор физкультуры Гриша (Евгений ... 10 10 1
Info! Золотая раздача, скачанное не засчитывается.
Торрент: Зарегистрирован [2015-08-30 09:12] · скачан: 5 раз
Статус: √ проверено
Размер: 742 MB
Как cкачать? Как скачать Случайная встреча через торрент | UTorrent

% Раздел Тема Автор DL S | L
Кино СССР [ 744 MB ] Случайная встреча | | DVDRip-AVC от AVP Studio AVP Studio Скачать
1 | 0
Кино СССР [ 1.09 GB ] Случайная встреча | | DVDRip от AVP Studio AVP Studio Скачать
1 | 0

28-11-2019 20:33  

Отключить вcю реклaмy на сайте

    Дорогой пользователь! Огромная просьба, поблагодарите релизера, оцените раздачу и оставьте свои комментарий, если Вы скачали Случайная встреча через торрент бесплатно!!
    Комментировать посты могут только пользователи прошедшие не сложную регистрацию
    Показать сообщения:    


    Случайная встреча через торрент
    Скачать бесплатно Случайная встреча
    Случайная встреча скачать торрент
    Случайная встреча смотреть онлайн
    Cкачать фильм Случайная встреча бесплатно
    Случайная встреча скачать торрент в хорошем качестве
    Случайная встреча смотреть онлайн бесплатно в хорошем качестве
    Вы не можете начинать темы
    Вы не можете отвечать на сообщения
    Вы не можете редактировать свои сообщения
    Вы не можете удалять свои сообщения
    Вы не можете голосовать в опросах
    Вы не можете прикреплять файлы к сообщениям
    Вы можете скачивать файлы