Доктор Стрэндж

Лицензия

Добыча

MVO

Дом дракона

1 сезон

Тор

Лицензия

Мэверик

Лицензия

Там, где раки поют

MVO

Властелин колец

1 сезон

Ultimate

pack

Рекомендуем

30

Repack

ВАЖНО

ВАЖНО

Ghostwire

RePack

jed

RePack

nioh2

RePack

RDR2

RePack

NEED FOR SPEED™ PAYBACK

RePack

скачать торрент

Кинопоиск HD

Острые козырьки 6 сезон

6 сезон

FAR CRY 6

RePack

скачать торрент

Лицензия

скачать торрент

MVO

1

1 сезон

скачать торрент

1 сезон

скачать торрент

Лицензия

  

Секретный фарватер / Серии: 1-4 из 4 (Вадим Костроменко) [1986, приключения, военный, экранизация, SATRip, AVC]

Секретный фарватер через торрент piratbit.org

Размер: 4.03 GB | Добавлен: 7 лет 1 мес. назад | Торрент скачан:83 раза
Смотреть онлайн | Скачать   

31-08-2015 02:40 Секретный фарватер Скачать торрент  

Секретный фарватер Жанр: приключения, военный, экранизация
Год выпуска: 1986
Продолжительность: 01:04:09 + 01:04:10 + 01:08:07 + 01:08:24

Режиссёр: Вадим Костроменко

В ролях: Анатолий Котенёв, Лариса Гузеева, Вячеслав Богатырёв, Сергей Быстрицкий, Леонид Трутнев, Владимир Наумцев, Валерий Юрченко, Борис Борисов, Улдис Думпис, Видас Петкявичюс, Гедиминас Гирдвайнис, Юрис Горнавс, Арунас Сторпирштис, Станислав Рий, Андрей Градов, Евгений Цветков (II), Иван Мацкевич, Пётр Шерекин, Александр Жданов, Ирен Азер, Василий Векшин, Виктор Козачук, Виктор Пименов, Юрий Эллер, Сейдулла Молдаханов, Валерий Наконечный, Пётр Шидывар, Гиви Тохадзе

Описание: 1944-й год. Время победоносного перелома в Великой Отечественной войне, но на Балтийском театре морских сражений пока тихо. Выполняя боевую задачу, командир торпедного катера Борис Шубин случайно обнаруживает секретный фарватер немецкой подводной лодки без опознавательных знаков. Непредвиденный случай забрасывает его на "Летучий голландец" и дает возможность приоткрыть завесу строжайшей тайны Третьего Рейха, которая ее окружает...



Качество видео: SATRip
Формат видео: MKV
Видео кодек: H.264
Аудио кодек: AC3
Видео: MPEG4 Video (H264), 704x528, 25fps,1894 Kbps,bit/pixel 0.233
Аудио: AC3 48000Hz, stereo, 192kbps,2 ch
Общее
Уникальный идентификатор : 174476577321900032084961712923160975675 (0x8342F76B9DC4F725AE3B3CB8D5B9993B)
Полное имя : G:\Секретный фарватер\01 серия.mkv
Формат : Matroska
Версия формата : Version 2
Размер файла : 1,04 Гбайт
Продолжительность : 1 ч. 4 м.
Общий поток : 2311 Кбит/сек
Дата кодирования : UTC 2015-08-30 06:34:28
Программа кодирования : mkvmerge v7.8.0 ('River Man') 32bit built on Apr 3 2015 12:11:22
Библиотека кодирования : libebml v1.3.1 + libmatroska v1.4.2

Видео
Идентификатор : 1
Формат : AVC
Формат/Информация : Advanced Video Codec
Профиль формата : High@L4.1
Параметр CABAC формата : Да
Параметр ReFrames формата : 9 кадров
Идентификатор кодека : V_MPEG4/ISO/AVC
Продолжительность : 1 ч. 4 м.
Битрейт : 2073 Кбит/сек
Ширина : 704 пикселя
Высота : 528 пикселей
Соотношение сторон : 4:3
Режим частоты кадров : Постоянный
Частота кадров : 25,000 кадров/сек
Цветовое пространство : YUV
Субдискретизация насыщенности : 4:2:0
Битовая глубина : 8 бит
Тип развёртки : Прогрессивная
Бит/(Пиксели*Кадры) : 0.223
Размер потока : 951 Мбайт (90%)
Библиотека кодирования : x264 core 146 r2538 121396c
Настройки программы : cabac=1 / ref=9 / deblock=1:-3:-3 / analyse=0x3:0x133 / me=umh / subme=9 / psy=1 / psy_rd=1.00:0.00 / mixed_ref=0 / me_range=16 / chroma_me=1 / trellis=2 / 8x8dct=1 / cqm=0 / deadzone=21,11 / fast_pskip=1 / chroma_qp_offset=-2 / threads=2 / lookahead_threads=4 / sliced_threads=0 / nr=0 / decimate=1 / interlaced=0 / bluray_compat=0 / constrained_intra=0 / bframes=9 / b_pyramid=2 / b_adapt=1 / b_bias=0 / direct=1 / weightb=1 / open_gop=0 / weightp=2 / keyint=250 / keyint_min=25 / scenecut=40 / intra_refresh=0 / rc_lookahead=40 / rc=crf / mbtree=1 / crf=18.0 / qcomp=0.60 / qpmin=0 / qpmax=69 / qpstep=4 / ip_ratio=1.40 / aq=1:1.00
Default : Да
Forced : Нет
Цветовой диапазон : Limited
Основные цвета : BT.601 PAL
Характеристики трансфера : BT.470 System B, BT.470 System G
Коэффициенты матрицы : BT.601

Аудио
Идентификатор : 2
Формат : AC-3
Формат/Информация : Audio Coding 3
Расширение режима : CM (complete main)
Параметр Endianness формата : Big
Идентификатор кодека : A_AC3
Продолжительность : 1 ч. 4 м.
Вид битрейта : Постоянный
Битрейт : 192 Кбит/сек
Каналы : 2 канала
Расположение каналов : Front: L R
Частота : 48,0 КГц
Метод сжатия : С потерями
Размер потока : 88,1 Мбайт (8%)
Default : Да
Forced : Нет



Скачать Секретный фарватер через торрент http://i71.fastpic.ru/big/2015/0831/b1/8012a5afc99f17bee556007f9c8b09b1.jpg Скачать, смотреть онлайн Секретный фарватер бесплантно в хорошем качестве Описание: 1944-й год. Время победоносного перелома в Великой Отечественной войне, но на Балтийском театре морских сражений пока тихо. ... 10 10 12
Info! Золотая раздача, скачанное не засчитывается.
Торрент: Зарегистрирован [2015-08-31 02:40] · скачан: 83 раз
Статус: √ проверено
Размер: 4.03 GB
Как cкачать? Как скачать Секретный фарватер через торрент | UTorrent

% Раздел Тема Автор DL S | L
Кино СССР [ 27.37 GB ] Секретный фарватер / Серии 1-4 из 4 | | HDTV 1080i Леонид Ильич Скачать
1 | 0
Кино СССР [ 2.84 GB ] Секретный фарватер / Серии: 1-4 из 4 | | SATRip mihis Скачать
1 | 0



Последний раз редактировалось: aleksan55 (2015-08-31 18:40), всего редактировалось 1 раз

28-11-2019 20:33  


Отключить вcю реклaмy на сайте, в т.ч. и в плеере онлайн просмотра!

31-08-2015 11:54 Секретный фарватер Скачать торрент  

aleksan55, Добавьте аудио и видео кодек в тех.данные и укажите в шапке что тут 4 серии.



    Дорогой пользователь! Огромная просьба, поблагодарите релизера, оцените раздачу и оставьте свои комментарий, если Вы скачали Секретный фарватер через торрент бесплатно!!
    Комментировать посты могут только пользователи прошедшие не сложную регистрацию
    Показать сообщения:    


    Секретный фарватер через торрент
    Скачать бесплатно Секретный фарватер
    Секретный фарватер скачать торрент
    Секретный фарватер смотреть онлайн
    Cкачать фильм Секретный фарватер бесплатно
    Секретный фарватер скачать торрент в хорошем качестве
    Секретный фарватер смотреть онлайн бесплатно в хорошем качестве
    Вы не можете начинать темы
    Вы не можете отвечать на сообщения
    Вы не можете редактировать свои сообщения
    Вы не можете удалять свои сообщения
    Вы не можете голосовать в опросах
    Вы не можете прикреплять файлы к сообщениям
    Вы можете скачивать файлы